<?xml version="1.0" standalone="no"?>
<!DOCTYPE svg PUBLIC "-//W3C//DTD SVG 1.1//EN" "http://www.w3.org/Graphics/SVG/1.1/DTD/svg11.dtd" >
<svg xmlns="http://www.w3.org/2000/svg">
<metadata>Generated by IcoMoon</metadata>
<defs>
<font id="salixfont" horiz-adv-x="1024">
<font-face units-per-em="1024" ascent="960" descent="-64" />
<missing-glyph horiz-adv-x="1024" />
<glyph unicode="&#x20;" horiz-adv-x="512" d="" />
<glyph unicode="&#xe900;" glyph-name="actions" d="M354.133 558.933v183.467c0 68.267 55.467 123.733 123.733 123.733s119.467-59.733 119.467-123.733v-183.467c59.733 38.4 98.133 106.667 98.133 183.467 0 119.467-98.133 217.6-221.867 217.6s-217.6-98.133-217.6-217.6c0-76.8 38.4-145.067 98.133-183.467zM832 332.8l-221.867 110.933c-8.533 4.267-17.067 4.267-25.6 4.267h-38.4v294.4c0 38.4-34.133 72.533-72.533 72.533s-72.533-34.133-72.533-72.533v-524.8l-166.4 34.133c-4.267 0-8.533 0-12.8 0-17.067 0-29.867-4.267-38.4-17.067l-38.4-38.4 238.933-238.933c12.8-12.8 29.867-21.333 51.2-21.333h332.8c38.4 0 64 25.6 68.267 64l38.4 256c0 4.267 0 8.533 0 8.533 4.267 29.867-17.067 55.467-42.667 68.267z" />
<glyph unicode="&#xe901;" glyph-name="addperson" d="M201.6 755.2c0 115.2 89.6 204.8 201.6 204.8s201.6-89.6 201.6-204.8-89.6-204.8-201.6-204.8c-112 0-201.6 92.8-201.6 204.8zM387.2 153.6v208h214.4v108.8c-70.4 22.4-147.2 32-198.4 32-134.4 0-403.2-70.4-403.2-204.8v-153.6h387.2v9.6zM1024 297.6v-144h-214.4v-214.4h-144v214.4h-214.4v144h214.4v214.4h144v-214.4h214.4z" />
<glyph unicode="&#xe902;" glyph-name="albaran" d="M819.2 960h-622.933c-55.467 0-102.4-46.933-102.4-102.4v-819.2c0-55.467 46.933-102.4 102.4-102.4h622.933c55.467 0 102.4 46.933 102.4 102.4v819.2c0 55.467-46.933 102.4-102.4 102.4zM358.4 174.933h-102.4v102.4h503.467v-102.4h-401.067zM256 379.733v102.4h503.467v-102.4h-503.467zM759.467 584.533h-503.467v102.4h503.467v-102.4z" />
<glyph unicode="&#xe903;" glyph-name="artificial" d="M310.4-35.2c0 41.6 0 80 0 128-32-16-54.4-32-76.8-44.8-19.2-12.8-35.2-12.8-48 12.8-51.2 96-105.6 185.6-156.8 281.6-9.6 12.8-12.8 28.8-22.4 44.8 32 22.4 64 41.6 102.4 64-38.4 22.4-70.4 44.8-105.6 67.2 22.4 38.4 44.8 76.8 64 115.2 41.6 70.4 83.2 140.8 121.6 211.2 9.6 16 19.2 19.2 35.2 9.6 25.6-16 51.2-28.8 86.4-48 0 44.8 0 83.2 0 124.8 137.6 0 272 0 406.4 0 0-41.6 0-83.2 0-128 38.4 22.4 73.6 41.6 108.8 60.8 19.2-32 38.4-64 57.6-96 41.6-76.8 86.4-153.6 131.2-230.4 9.6-19.2 6.4-28.8-9.6-38.4-25.6-16-51.2-32-83.2-51.2 35.2-22.4 67.2-44.8 105.6-67.2-67.2-118.4-131.2-233.6-198.4-348.8-35.2 19.2-70.4 38.4-108.8 60.8 0-44.8 0-83.2 0-124.8-140.8-3.2-275.2-3.2-409.6-3.2zM796.8 745.6c-57.6-32-108.8-64-166.4-96 0 67.2 0 128 0 192-76.8 0-153.6 0-233.6 0 0-64 0-124.8 0-192-51.2 32-96 57.6-140.8 83.2-9.6 3.2-28.8 3.2-32-3.2-38.4-60.8-70.4-121.6-108.8-185.6 57.6-32 108.8-64 163.2-96-54.4-32-108.8-64-163.2-96 28.8-54.4 57.6-105.6 86.4-153.6 28.8-51.2 32-51.2 80-22.4 35.2 19.2 73.6 41.6 115.2 67.2 0-67.2 0-131.2 0-192 80 0 156.8 0 236.8 0 0 64 0 121.6 0 185.6 54.4-32 105.6-60.8 160-89.6 35.2 64 73.6 124.8 105.6 188.8 3.2 6.4-6.4 22.4-12.8 25.6-35.2 22.4-70.4 41.6-105.6 64-28.8 16-28.8 25.6 0 41.6 35.2 22.4 73.6 41.6 108.8 67.2 6.4 3.2 12.8 19.2 9.6 25.6-32 60.8-67.2 121.6-102.4 185.6zM387.2 323.2c0 86.4 0 166.4 0 252.8 83.2 0 163.2 0 246.4 0 0-83.2 0-166.4 0-252.8-83.2 0-163.2 0-246.4 0zM553.6 409.6c0 28.8 0 51.2 0 76.8-25.6 0-51.2 0-76.8 0 0-25.6 0-51.2 0-76.8 25.6 0 51.2 0 76.8 0z" />
<glyph unicode="&#xe904;" glyph-name="barcode" d="M0 857.6h102.4v-819.2h-102.4v819.2zM307.2 857.6h153.6v-819.2h-153.6v819.2zM768 857.6h51.2v-819.2h-51.2v819.2zM204.8 857.6h51.2v-819.2h-51.2v819.2zM921.6 857.6h102.4v-819.2h-102.4v819.2zM563.2 857.6h102.4v-819.2h-102.4v819.2z" />
<glyph unicode="&#xe905;" glyph-name="bin" d="M238.933 4.267c0 0 17.067-68.267 93.867-68.267h354.133c76.8 0 93.867 68.267 93.867 68.267l68.267 682.667h-678.4l68.267-682.667zM648.533 584.533c0 17.067 17.067 34.133 34.133 34.133s34.133-17.067 34.133-34.133l-34.133-512c0-17.067-17.067-34.133-34.133-34.133s-34.133 17.067-34.133 34.133l34.133 512zM477.867 584.533c0 17.067 17.067 34.133 34.133 34.133s34.133-17.067 34.133-34.133v-512c0-17.067-17.067-34.133-34.133-34.133s-34.133 17.067-34.133 34.133c0 0 0 512 0 512zM341.333 618.667c17.067 0 34.133-17.067 34.133-34.133l34.133-512c0-17.067-17.067-34.133-34.133-34.133s-34.133 17.067-34.133 34.133l-34.133 512c0 17.067 17.067 34.133 34.133 34.133zM832 823.467h-149.333v68.267c0 51.2-17.067 68.267-68.267 68.267h-204.8c-46.933 0-68.267-21.333-68.267-68.267v-68.267h-149.333c-29.867 0-55.467-21.333-55.467-51.2s25.6-51.2 55.467-51.2h640c29.867 0 55.467 21.333 55.467 51.2s-25.6 51.2-55.467 51.2zM614.4 823.467h-204.8v68.267h204.8v-68.267z" />
<glyph unicode="&#xe906;" glyph-name="botanical" d="M819.2 430.933c-12.8 8.533-25.6 12.8-38.4 17.067 12.8 4.267 25.6 12.8 38.4 17.067 89.6 51.2 136.533 140.8 136.533 238.933-81.067 46.933-187.733 51.2-273.067 0-12.8-8.533-25.6-17.067-34.133-25.6 4.267 12.8 4.267 29.867 4.267 42.667 0 102.4-55.467 192-136.533 238.933-81.067-46.933-136.533-136.533-136.533-238.933 0-12.8 0-29.867 4.267-42.667-17.067 8.533-29.867 17.067-42.667 25.6-85.333 51.2-192 46.933-273.067 0 0-93.867 46.933-187.733 136.533-238.933 12.8-8.533 25.6-12.8 38.4-17.067-12.8-4.267-25.6-12.8-38.4-17.067-89.6-51.2-136.533-140.8-136.533-238.933 81.067-46.933 187.733-51.2 273.067 0 12.8 8.533 25.6 17.067 34.133 25.6-4.267-12.8-4.267-29.867-4.267-42.667 0-102.4 55.467-192 136.533-238.933 81.067 46.933 136.533 136.533 136.533 238.933 0 12.8 0 29.867-4.267 42.667 12.8-8.533 21.333-17.067 34.133-25.6 89.6-51.2 192-46.933 273.067 0 8.533 93.867-42.667 187.733-128 238.933zM512 264.533c-102.4 0-183.467 81.067-183.467 183.467s81.067 183.467 183.467 183.467 183.467-81.067 183.467-183.467-81.067-183.467-183.467-183.467z" />
<glyph unicode="&#xe907;" glyph-name="bucket" d="M827.733 213.333l-17.067-140.8v-4.267c0-81.067-115.2-132.267-298.667-132.267-217.6 0-320 68.267-320 132.267l-59.733 622.933c81.067-55.467 217.6-93.867 379.733-93.867 157.867 0 294.4 34.133 375.467 89.6l-51.2-401.067-8.533-72.533zM891.733 814.933c0-81.067-170.667-145.067-379.733-145.067s-379.733 68.267-379.733 145.067 170.667 145.067 379.733 145.067 379.733-64 379.733-145.067z" />
<glyph unicode="&#xe908;" glyph-name="claims" d="M694.4-6.4c12.8 28.8 38.4 51.2 73.6 51.2v57.6c-64 0-118.4-48-131.2-108.8h-54.4c9.6 96 89.6 166.4 185.6 166.4v57.6c-76.8 0-144-35.2-188.8-92.8v262.4c57.6 6.4 115.2 35.2 156.8 80 51.2 51.2 76.8 118.4 76.8 192v28.8h-28.8c-70.4 0-134.4-28.8-185.6-80-6.4-9.6-16-16-22.4-25.6v204.8c0 48-16 89.6-48 124.8-32 32-73.6 51.2-118.4 51.2-83.2-3.2-153.6-67.2-166.4-150.4-86.4-12.8-153.6-89.6-153.6-185.6v-198.4l112 83.2 67.2-67.2 73.6 67.2 108.8-86.4v201.6c0 92.8-64 169.6-147.2 182.4 12.8 51.2 57.6 89.6 108.8 89.6 28.8 0 57.6-12.8 80-35.2s32-51.2 32-83.2v-691.2c-28.8 28.8-70.4 44.8-115.2 44.8v-57.6c54.4 0 99.2-38.4 112-89.6h-342.4v-51.2h755.2v57.6h-240zM640 566.4c32 32 70.4 54.4 115.2 60.8-6.4-44.8-28.8-86.4-57.6-118.4-32-32-70.4-54.4-115.2-60.8 3.2 44.8 25.6 86.4 57.6 118.4zM393.6 627.2v-83.2l-51.2 41.6-70.4-60.8-60.8 60.8-64-44.8v86.4c0 70.4 54.4 128 124.8 128 64 0 121.6-57.6 121.6-128z" />
<glyph unicode="&#xe909;" glyph-name="clone" d="M554.667 268.8v64h-213.333v115.2h213.333v136.533l-204.8 204.8h-281.6c-38.4 0-68.267-29.867-68.267-68.267v-546.133c0-38.4 29.867-68.267 68.267-68.267h418.133c38.4 0 68.267 29.867 68.267 68.267v0 93.867zM311.467 738.133l192-187.733h-192v187.733zM814.933 789.333h-277.333c-29.867 0-55.467-17.067-64-42.667l123.733-119.467 17.067-17.067v-162.133h68.267v85.333l247.467-145.067-247.467-140.8v85.333h-72.533v-153.6c0-25.6-8.533-46.933-21.333-68.267h362.667c38.4 0 68.267 29.867 68.267 68.267v405.333l-204.8 204.8zM780.8 550.4v187.733l192-187.733h-192zM371.2 362.667h341.333v-68.267l162.133 93.867-162.133 93.867v-64h-341.333z" />
<glyph unicode="&#xe90a;" glyph-name="accessory" d="M499.2 960c118.4-3.2 224-12.8 320-54.4 35.2-16 70.4-32 89.6-67.2 9.6-19.2 16-48 16-70.4-9.6-73.6-25.6-147.2-38.4-224-22.4-137.6-41.6-272-60.8-406.4-3.2-19.2-6.4-38.4-6.4-54.4-3.2-41.6-25.6-73.6-60.8-96-60.8-35.2-124.8-44.8-192-51.2-89.6-6.4-179.2 0-262.4 38.4-51.2 22.4-76.8 57.6-86.4 112-35.2 192-64 374.4-89.6 563.2-6.4 38.4-16 73.6-22.4 112-9.6 44.8 9.6 89.6 54.4 118.4 64 41.6 134.4 57.6 208 67.2 48 6.4 96 9.6 131.2 12.8zM227.2 652.8c25.6-179.2 54.4-358.4 80-534.4 6.4-35.2 22.4-54.4 54.4-64 70.4-19.2 144-25.6 217.6-16 38.4 6.4 73.6 16 112 28.8 9.6 3.2 22.4 19.2 22.4 28.8 19.2 121.6 38.4 246.4 57.6 371.2 9.6 57.6 16 118.4 25.6 179.2-192-54.4-377.6-51.2-569.6 6.4zM828.8 787.2c-28.8 12.8-51.2 28.8-73.6 35.2-60.8 16-118.4 28.8-179.2 32-105.6 9.6-208 0-310.4-35.2-22.4-6.4-41.6-19.2-64-28.8 0-3.2 0-6.4 0-9.6 16-6.4 32-19.2 48-25.6 150.4-54.4 304-54.4 457.6-22.4 41.6 6.4 83.2 22.4 121.6 54.4z" />
<glyph unicode="&#xe90b;" glyph-name="components" d="M490.667 657.067c-4.267-8.533-4.267-25.6-4.267-42.667v-140.8h-140.8c-17.067 0-25.6 0-34.133 4.267 0 0 0 0 0 0l17.067 25.6c12.8 12.8 21.333 29.867 17.067 51.2 0 25.6-12.8 51.2-29.867 68.267-17.067 12.8-42.667 21.333-72.533 21.333-25.6 0-51.2-8.533-72.533-25.6s-29.867-42.667-29.867-68.267c0-17.067 4.267-34.133 17.067-51.2l17.067-25.6c0 0 0 0 0 0-4.267 0-17.067-4.267-34.133-4.267 0 0 0 0 0 0h-140.8v490.667h486.4v-145.067c0-21.333 0-34.133 4.267-42.667 0-12.8 8.533-25.6 21.333-29.867 4.267-4.267 12.8-4.267 21.333-4.267 0 0 0 0 0 0 4.267 0 17.067 0 25.6 8.533l29.867 21.333c8.533 4.267 17.067 8.533 25.6 8.533 12.8 0 21.333-4.267 29.867-17.067s12.8-25.6 12.8-42.667c0-17.067-4.267-29.867-12.8-42.667-8.533-8.533-21.333-17.067-29.867-17.067s-17.067 4.267-25.6 8.533l-29.867 21.333c-8.533 4.267-21.333 8.533-25.6 8.533-8.533 0-12.8 0-21.333-4.267-12.8-8.533-21.333-21.333-21.333-34.133zM1019.733 614.4c0 8.533 0 38.4-8.533 42.667 0 0 0 0 0 0-4.267 0-4.267 0-8.533 0l-29.867-21.333c-12.8-8.533-25.6-17.067-42.667-17.067-46.933 0-85.333 42.667-85.333 93.867s38.4 93.867 85.333 93.867c17.067 0 34.133-4.267 46.933-17.067l29.867-21.333c0 0 4.267 0 8.533 0 8.533 4.267 8.533 34.133 8.533 42.667v149.333h-494.933v-145.067c0-17.067 0-25.6 4.267-34.133 0 0 0 0 0 0v0l25.6 17.067c12.8 12.8 34.133 17.067 51.2 17.067 25.6 0 51.2-12.8 68.267-29.867 17.067-21.333 25.6-46.933 25.6-72.533s-8.533-51.2-25.6-72.533c-17.067-21.333-42.667-29.867-68.267-29.867-17.067 0-34.133 4.267-51.2 17.067l-25.6 17.067c0 0 0 0 0 0 0-4.267-4.267-17.067-4.267-34.133v-140.8h145.067c21.333 0 34.133 0 42.667-4.267 12.8-4.267 25.6-12.8 29.867-21.333 4.267-4.267 4.267-12.8 4.267-21.333s0-17.067-8.533-25.6l-21.333-29.867c-4.267-8.533-8.533-17.067-8.533-25.6 0-12.8 4.267-21.333 17.067-29.867s25.6-12.8 42.667-12.8c17.067 0 29.867 4.267 42.667 12.8 8.533 8.533 17.067 21.333 17.067 29.867s-4.267 17.067-8.533 25.6l-12.8 29.867c-8.533 12.8-8.533 21.333-8.533 25.6 0 8.533 0 12.8 4.267 21.333s17.067 17.067 29.867 21.333c8.533 4.267 25.6 4.267 42.667 4.267h140.8v145.067zM874.667-59.733c25.6 0 115.2-4.267 149.333-4.267v490.667h-140.8c-17.067 0-25.6 0-34.133-4.267 0 0 0 0 0 0v0l17.067-25.6c12.8-12.8 17.067-34.133 17.067-51.2 0-25.6-12.8-51.2-29.867-68.267-21.333-17.067-46.933-25.6-72.533-25.6s-51.2 8.533-72.533 25.6c-21.333 17.067-29.867 42.667-29.867 68.267 0 17.067 4.267 34.133 17.067 51.2l17.067 29.867c0 0 0 0 0 0-4.267 0-17.067 4.267-34.133 4.267h-149.333v-140.8c0-21.333 0-34.133-4.267-42.667-4.267-12.8-12.8-25.6-21.333-29.867-4.267-4.267-12.8-4.267-21.333-4.267s-17.067 0-25.6 8.533l-29.867 12.8c-8.533 4.267-17.067 8.533-25.6 8.533-12.8 0-21.333-4.267-29.867-17.067s-12.8-25.6-12.8-42.667c0-17.067 4.267-29.867 12.8-42.667 8.533-8.533 21.333-17.067 29.867-17.067s17.067 4.267 25.6 8.533l29.867 21.333c8.533 4.267 17.067 8.533 25.6 8.533 0 0 0 0 0 0 8.533 0 12.8 0 21.333-4.267 12.8-4.267 17.067-17.067 21.333-29.867 4.267-8.533 4.267-25.6 4.267-42.667v-140.8h140.8c8.533 0 38.4 0 42.667 8.533 0 4.267 0 8.533 0 8.533l-21.333 29.867c-8.533 12.8-17.067 29.867-17.067 46.933 0 46.933 42.667 85.333 93.867 85.333s93.867-38.4 93.867-85.333c0-17.067-4.267-34.133-17.067-46.933l-21.333-29.867c0 0-4.267-4.267 0-8.533 12.8-12.8 42.667-12.8 51.2-12.8zM0 426.667v-490.667h486.4v145.067c0 17.067 0 25.6-4.267 34.133 0 0 0 0 0 0v0l-25.6-17.067c-12.8-12.8-34.133-17.067-51.2-17.067-25.6 0-51.2 12.8-68.267 29.867-17.067 21.333-25.6 46.933-25.6 72.533s8.533 51.2 25.6 72.533c17.067 21.333 42.667 29.867 68.267 29.867 17.067 0 34.133-4.267 51.2-17.067l29.867-17.067c0 0 0 0 0 0 0 4.267 4.267 17.067 4.267 34.133v140.8h-145.067c-21.333 0-34.133 0-42.667 4.267-12.8 4.267-25.6 12.8-29.867 21.333-4.267 4.267-4.267 12.8-4.267 21.333s0 17.067 8.533 25.6l21.333 29.867c0 8.533 4.267 17.067 4.267 25.6 0 12.8-4.267 21.333-17.067 29.867s-25.6 12.8-42.667 12.8v0c-17.067 0-29.867-4.267-42.667-12.8-8.533-8.533-12.8-17.067-12.8-29.867 0-8.533 4.267-17.067 8.533-25.6l17.067-29.867c8.533-12.8 8.533-21.333 8.533-25.6 0-8.533 0-12.8-4.267-21.333-4.267-12.8-17.067-17.067-29.867-21.333-8.533-4.267-25.6-4.267-42.667-4.267h-145.067z" />
<glyph unicode="&#xe90c;" glyph-name="handmade" d="M537.6 681.6c44.8 54.4 99.2 83.2 163.2 89.6 51.2 6.4 99.2 0 144-16 64-19.2 121.6-57.6 176-99.2-60.8-51.2-128-89.6-214.4-105.6 105.6-60.8 163.2-150.4 204.8-256-153.6-32-278.4 19.2-400 112-6.4-41.6-12.8-76.8-16-112-12.8-80-22.4-160-35.2-236.8-3.2-28.8-19.2-44.8-41.6-54.4-76.8-28.8-153.6-28.8-227.2 0-25.6 9.6-41.6 28.8-44.8 57.6-12.8 99.2-28.8 201.6-44.8 300.8-3.2 12.8-6.4 22.4-19.2 28.8-38.4 16-57.6 41.6-70.4 80-3.2 6.4-9.6 16-16 16-89.6 22.4-128 134.4-64 201.6 9.6 9.6 12.8 19.2 9.6 35.2-19.2 99.2 54.4 166.4 156.8 147.2 6.4-3.2 12.8 3.2 19.2 6.4 73.6 67.2 176 41.6 208-51.2 3.2-9.6 9.6-16 16-19.2 60.8-16 89.6-57.6 96-124.8zM227.2 790.4c-60.8 38.4-86.4 38.4-115.2 9.6-38.4-41.6-16-80 16-118.4-44.8-16-83.2-41.6-70.4-92.8 16-54.4 60.8-57.6 108.8-44.8 0-12.8-3.2-22.4-3.2-32-3.2-38.4 19.2-67.2 54.4-76.8 28.8-6.4 64 12.8 80 44.8 3.2 9.6 9.6 16 12.8 25.6 57.6-38.4 86.4-41.6 115.2-12.8s28.8 54.4-12.8 118.4c41.6 16 80 38.4 67.2 92.8-12.8 57.6-60.8 57.6-108.8 51.2 9.6 57.6-6.4 92.8-44.8 105.6-41.6 12.8-67.2-6.4-99.2-70.4zM256 361.6c0-9.6 0-19.2 0-28.8 12.8-86.4 28.8-169.6 38.4-252.8 3.2-19.2 12.8-28.8 28.8-35.2 54.4-16 108.8-16 166.4 0 12.8 3.2 22.4 12.8 25.6 28.8 6.4 54.4 16 112 25.6 166.4 6.4 38.4 9.6 80 16 121.6-140.8-32-150.4-32-300.8 0zM947.2 336c-38.4 73.6-83.2 134.4-156.8 172.8-44.8 25.6-92.8 32-144 16-32-12.8-60.8-32-76.8-57.6 25.6-9.6 48-12.8 70.4-22.4 22.4-12.8 44.8-25.6 67.2-41.6 67.2-48 147.2-76.8 240-67.2zM547.2 572.8c32 19.2 64 22.4 99.2 22.4 51.2 0 102.4-3.2 153.6 3.2 51.2 3.2 96 25.6 140.8 54.4-76.8 57.6-179.2 86.4-265.6 67.2-67.2-16-121.6-76.8-128-147.2zM304 396.8c38.4-3.2 73.6-3.2 105.6-9.6 48-6.4 80 6.4 92.8 60.8 6.4 25.6 3.2 48 0 76.8-3.2-9.6-6.4-12.8-9.6-19.2-19.2-60.8-73.6-96-134.4-83.2-25.6 3.2-38.4-3.2-54.4-25.6zM364.8 646.4c0-54.4-44.8-96-96-96-54.4 0-99.2 44.8-99.2 99.2 0 51.2 44.8 96 96 96 54.4 0 99.2-44.8 99.2-99.2zM310.4 646.4c0 22.4-19.2 41.6-41.6 41.6-25.6 3.2-44.8-19.2-44.8-41.6s22.4-44.8 44.8-44.8c22.4 3.2 41.6 22.4 41.6 44.8z" />
<glyph unicode="&#xe90d;" glyph-name="consignatarios" d="M409.6-64v349.867h204.8v-349.867h256v563.2h153.6l-512 460.8-512-460.8h153.6v-563.2h256z" />
<glyph unicode="&#xe90e;" glyph-name="credit" d="M921.6 849.067h-819.2c-55.467 0-102.4-42.667-102.4-98.133v-601.6c0-55.467 46.933-102.4 102.4-102.4h819.2c55.467 0 102.4 42.667 102.4 102.4v601.6c0 55.467-46.933 98.133-102.4 98.133zM921.6 145.067h-819.2v302.933h819.2v-302.933zM921.6 648.533h-819.2v102.4h819.2v-102.4z" />
<glyph unicode="&#xe90f;" glyph-name="columndelete" d="M0 960h256v-256h-256v256zM0 192h256v-256h-256v256zM0 576h256v-256h-256v256zM785.067 686.933l93.867-98.133-140.8-140.8 140.8-145.067-93.867-98.133-145.067 145.067-145.067-145.067-93.867 98.133 140.8 145.067-140.8 140.8 93.867 98.133 145.067-145.067z" />
<glyph unicode="&#xe910;" glyph-name="agency" d="M789.333 264.533c-55.467 0-102.4-46.933-102.4-102.4s46.933-102.4 102.4-102.4 102.4 46.933 102.4 102.4c0 59.733-46.933 102.4-102.4 102.4zM789.333 110.933c-29.867 0-51.2 21.333-51.2 51.2s21.333 51.2 51.2 51.2 51.2-21.333 51.2-51.2c0-25.6-25.6-51.2-51.2-51.2zM251.733 264.533c-55.467 0-102.4-46.933-102.4-102.4s46.933-102.4 102.4-102.4c55.467 0 102.4 46.933 102.4 102.4 0 59.733-46.933 102.4-102.4 102.4zM251.733 110.933c-29.867 0-51.2 21.333-51.2 51.2s21.333 51.2 51.2 51.2c29.867 0 51.2-21.333 51.2-51.2 0-25.6-25.6-51.2-51.2-51.2zM1006.933 537.6l-196.267 192c-12.8 12.8-29.867 17.067-46.933 17.067h-98.133v38.4c0 25.6-21.333 51.2-51.2 51.2h-563.2c-29.867 0-51.2-21.333-51.2-51.2v-554.667c0-29.867 25.6-51.2 51.2-51.2h68.267c8.533 64 64 115.2 132.267 115.2 64 0 123.733-51.2 132.267-115.2h268.8c8.533 64 64 115.2 132.267 115.2s128-51.2 136.533-115.2h51.2c29.867 0 51.2 25.6 51.2 51.2v260.267c0 17.067-8.533 34.133-17.067 46.933zM725.333 682.667c0 4.267 4.267 8.533 8.533 8.533h34.133c0 0 4.267 0 4.267-4.267l153.6-145.067c4.267 0 0-12.8-4.267-12.8h-187.733c-8.533 0-8.533 4.267-8.533 8.533v145.067z" />
<glyph unicode="&#xe911;" glyph-name="details" d="M908.823 844.777v-797.867h-793.6v797.867h793.6zM972.823 959.977h-921.6c-29.867 0-51.2-21.333-51.2-51.2v-921.6c0-21.333 21.333-51.2 51.2-51.2h921.6c21.333 0 51.2 29.867 51.2 51.2v921.6c0 29.867-29.867 51.2-51.2 51.2zM456.556 733.844h341.333v-115.2h-341.333v115.2zM456.556 503.444h341.333v-115.2h-341.333v115.2zM456.556 277.31h341.333v-115.2h-341.333v115.2zM226.156 733.844h115.2v-115.2h-115.2v115.2zM226.156 503.444h115.2v-115.2h-115.2v115.2zM226.156 277.31h115.2v-115.2h-115.2v115.2z" />
<glyph unicode="&#xe912;" glyph-name="fiscal" d="M140.8 520.533v-341.333h149.333v341.333h-149.333zM439.467 520.533v-341.333h149.333v341.333h-149.333zM38.4-64h942.933v145.067h-942.933v-145.067zM733.867 520.533v-341.333h149.333v341.333h-149.333zM512 960l-473.6-243.2v-98.133h942.933v98.133l-469.333 243.2z" />
<glyph unicode="&#xe913;" glyph-name="doc" d="M614.4 960h-409.6c-55.467 0-102.4-46.933-102.4-102.4v-819.2c0-55.467 46.933-102.4 102.4-102.4h614.4c55.467 0 102.4 46.933 102.4 102.4v614.4l-307.2 307.2zM716.8 140.8h-409.6v102.4h409.6v-102.4zM716.8 345.6h-409.6v102.4h409.6v-102.4zM563.2 601.6v281.6l281.6-281.6h-281.6z" />
<glyph unicode="&#xe914;" glyph-name="buyrequest" d="M520.533 878.933c-34.133 0-55.467-25.6-55.467-55.467s25.6-55.467 55.467-55.467 55.467 25.6 55.467 55.467-21.333 55.467-55.467 55.467zM520.533 806.4c-12.8 0-17.067 8.533-17.067 17.067s8.533 17.067 17.067 17.067 17.067-8.533 17.067-17.067-4.267-17.067-17.067-17.067zM588.8 247.467l-4.267 12.8v4.267l-17.067 59.733h-273.067v-89.6h298.667zM294.4 686.933h452.267v-89.6h-452.267v89.6zM571.733 430.933c17.067 12.8 38.4 17.067 59.733 8.533l64-25.6h55.467v89.6h-456.533v-89.6h264.533c4.267 8.533 8.533 12.8 12.8 17.067zM643.985 256.128l95.27 85.478 202.299-225.473-95.27-85.478-202.299 225.473zM855.196 15.592l95.283 85.466 22.791-25.409-95.283-85.466-22.791 25.409zM1015.467 29.867l-34.133 38.4-93.867-85.333 34.133-38.4c4.267-4.267 12.8-8.533 17.067-8.533 8.533 0 12.8 0 17.067 8.533l59.733 51.2c8.533 8.533 12.8 25.6 0 34.133zM614.4 401.067c-4.267 0-8.533 0-12.8-4.267-4.267 0-4.267-8.533-4.267-12.8l34.133-119.467 93.867 85.333-110.933 51.2zM729.6 93.867h-524.8c-29.867 0-51.2 25.6-51.2 51.2v635.733c0 25.6 21.333 51.2 51.2 51.2h213.333l8.533 25.6c12.8 38.4 51.2 64 93.867 64s76.8-25.6 93.867-64l8.533-25.6h213.333c29.867 0 51.2-25.6 51.2-51.2v-541.867l38.4-42.667v584.533c0 46.933-42.667 89.6-89.6 89.6h-187.733c-17.067 51.2-68.267 89.6-128 89.6s-110.933-38.4-128-89.6h-187.733c-46.933 0-89.6-42.667-89.6-89.6v-635.733c0-46.933 42.667-89.6 89.6-89.6h554.667l-29.867 38.4z" />
<glyph unicode="&#xe915;" glyph-name="eye" d="M512 797.867c-234.667 0-430.933-145.067-512-349.867 81.067-204.8 277.333-349.867 512-349.867s430.933 145.067 512 349.867c-81.067 204.8-277.333 349.867-512 349.867zM512 213.333c-128 0-234.667 102.4-234.667 234.667s106.667 234.667 234.667 234.667 234.667-106.667 234.667-234.667-106.667-234.667-234.667-234.667zM512 588.8c-76.8 0-140.8-64-140.8-140.8s64-140.8 140.8-140.8 140.8 64 140.8 140.8-64 140.8-140.8 140.8z" />
<glyph unicode="&#xe916;" glyph-name="flower" d="M905.6 636.8c-9.6 3.2-19.2 19.2-16 25.6 6.4 89.6-25.6 163.2-99.2 214.4-76.8 51.2-156.8 54.4-236.8 9.6-19.2-9.6-28.8-9.6-48 0-76.8 48-153.6 54.4-233.6 12.8-80-44.8-118.4-112-121.6-201.6 0-19.2-6.4-28.8-25.6-38.4-83.2-41.6-124.8-108.8-128-201.6 0-80 32-150.4 102.4-192 22.4-16 38.4-28.8 28.8-57.6 3.2-89.6 38.4-160 115.2-201.6 76.8-44.8 156.8-38.4 233.6 3.2 6.4 3.2 22.4 0 32-3.2 38.4-12.8 73.6-38.4 112-38.4 140.8-9.6 243.2 89.6 246.4 233.6 0 9.6 9.6 19.2 16 25.6 28.8 25.6 70.4 48 92.8 80 86.4 112 48 259.2-70.4 329.6zM806.4 300.8c-16-3.2-28.8-3.2-48-6.4 6.4-16 9.6-32 12.8-44.8 25.6-70.4 0-140.8-64-176-64-32-134.4-12.8-179.2 51.2-6.4 12.8-16 22.4-22.4 32-22.4-22.4-41.6-44.8-64-60.8-51.2-38.4-118.4-35.2-166.4 3.2s-64 105.6-41.6 163.2c6.4 16 12.8 32 22.4 51.2-22.4 3.2-38.4 9.6-57.6 12.8-67.2 16-115.2 76.8-108.8 140.8 6.4 67.2 60.8 121.6 131.2 128 16 0 28.8 3.2 48 6.4-6.4 19.2-12.8 38.4-19.2 57.6-22.4 60.8 6.4 128 64 160s131.2 16 172.8-38.4c9.6-12.8 22.4-28.8 35.2-44.8 12.8 12.8 25.6 25.6 35.2 41.6 38.4 48 112 64 169.6 35.2s86.4-96 67.2-156.8c-6.4-22.4-16-44.8-28.8-70.4 16-3.2 32-6.4 48-9.6 73.6-12.8 118.4-67.2 118.4-140.8s-51.2-124.8-124.8-134.4zM512 624c-102.4 0-176-76.8-176-176 0-102.4 80-179.2 179.2-179.2 96 0 176 83.2 176 179.2s-80 176-179.2 176zM512 358.4c-48 0-89.6 38.4-86.4 89.6 0 48 41.6 86.4 86.4 86.4s86.4-41.6 86.4-89.6c0-48-38.4-86.4-86.4-86.4z" />
<glyph unicode="&#xe917;" glyph-name="frozen" d="M1024 499.2h-213.333l166.4 166.4-72.533 72.533-238.933-238.933h-102.4v102.4l238.933 238.933-72.533 72.533-166.4-166.4v213.333h-102.4v-213.333l-166.4 166.4-72.533-72.533 238.933-238.933v-102.4h-102.4l-238.933 238.933-72.533-72.533 166.4-166.4h-213.333v-102.4h213.333l-166.4-166.4 72.533-72.533 238.933 238.933h102.4v-102.4l-238.933-238.933 72.533-72.533 166.4 166.4v-213.333h102.4v213.333l166.4-166.4 72.533 72.533-238.933 238.933v102.4h102.4l238.933-238.933 72.533 72.533-166.4 166.4h213.333v102.4z" />
<glyph unicode="&#xe918;" glyph-name="greuge" d="M921.6 729.6h-204.8v102.4c0 55.467-46.933 102.4-102.4 102.4h-204.8c-55.467 0-102.4-46.933-102.4-102.4v-102.4h-204.8c-55.467 0-102.4-46.933-102.4-102.4v-563.2c0-55.467 46.933-102.4 102.4-102.4h819.2c55.467 0 102.4 46.933 102.4 102.4v563.2c0 55.467-46.933 102.4-102.4 102.4zM614.4 729.6h-204.8v102.4h204.8v-102.4z" />
<glyph unicode="&#xe919;" glyph-name="grid" d="M0 704h256v256h-256v-256zM384-64h256v256h-256v-256zM0-64h256v256h-256v-256zM0 320h256v256h-256v-256zM384 320h256v256h-256v-256zM768 960v-256h256v256h-256zM384 704h256v256h-256v-256zM768 320h256v256h-256v-256zM768-64h256v256h-256v-256z" />
<glyph unicode="&#xe91a;" glyph-name="history" d="M554.667 934.4c-260.267 0-469.333-209.067-469.333-469.333h-85.333l136.533-209.067 140.8 209.067h-85.333c0 200.533 162.133 362.667 362.667 362.667s362.667-162.133 362.667-362.667-162.133-362.667-362.667-362.667c-98.133 0-192 42.667-251.733 106.667l-72.533-72.533c85.333-85.333 200.533-136.533 332.8-136.533 260.267 0 465.067 209.067 465.067 465.067s-217.6 469.333-473.6 469.333zM503.467 674.133v-260.267l221.867-132.267 34.133 64-179.2 106.667v221.867h-76.8z" />
<glyph unicode="&#xe91b;" glyph-name="disabled" d="M98.133 174.933v17.067c0 76.8 81.067 128 179.2 162.133l-179.2-179.2zM247.467 42.667h678.4v149.333c0 110.933-183.467 179.2-328.533 200.533l-349.867-349.867zM686.933 763.733c-38.4 55.467-102.4 89.6-174.933 89.6-115.2 0-209.067-89.6-209.067-204.8 0-68.267 38.4-132.267 98.133-170.667l285.867 285.867zM0-4.267l59.733-59.733 964.267 964.267-59.733 59.733-964.267-964.267z" />
<glyph unicode="&#xe91c;" glyph-name="invoices" d="M345.6 174.933h-89.6v102.4h81.067c4.267 34.133 8.533 68.267 21.333 102.4h-102.4v102.4h162.133c34.133 42.667 72.533 76.8 119.467 102.4h-281.6v102.4h520.533v-55.467c4.267 0 12.8 0 17.067 0 42.667 0 85.333-4.267 128-17.067v243.2c0 55.467-46.933 102.4-102.4 102.4h-622.933c-55.467 0-102.4-46.933-102.4-102.4v-819.2c0-55.467 46.933-102.4 102.4-102.4h302.933c-81.067 55.467-136.533 140.8-153.6 238.933zM942.933 119.467l85.333-81.067c-25.6-34.133-59.733-59.733-102.4-76.8s-85.333-25.6-136.533-25.6c-46.933 0-93.867 8.533-132.267 25.6s-76.8 42.667-106.667 72.533c-29.867 29.867-51.2 68.267-64 110.933h-93.867v68.267h81.067c0 4.267 0 12.8 0 21.333s0 17.067 0 21.333h-81.067v68.267h93.867c12.8 42.667 34.133 76.8 64 110.933 29.867 29.867 64 55.467 106.667 72.533s85.333 25.6 132.267 25.6c51.2 0 93.867-8.533 136.533-25.6s76.8-42.667 102.4-76.8l-85.333-81.067c-38.4 46.933-89.6 68.267-145.067 68.267-38.4 0-68.267-8.533-98.133-25.6s-51.2-38.4-68.267-68.267h209.067v-68.267h-230.4c0-4.267 0-12.8 0-21.333s0-17.067 0-21.333h230.4v-68.267h-209.067c17.067-29.867 38.4-51.2 68.267-68.267s59.733-25.6 98.133-25.6c55.467 0 102.4 21.333 145.067 68.267z" />
<glyph unicode="&#xe91d;" glyph-name="languaje" d="M512 960c-281.6 0-512-230.4-512-512s230.4-512 512-512c281.6 0 512 230.4 512 512s-230.4 512-512 512zM866.133 652.8h-149.333c-17.067 64-38.4 123.733-72.533 183.467 93.867-34.133 174.933-98.133 221.867-183.467zM512 857.6c42.667-59.733 76.8-128 98.133-204.8h-196.267c21.333 72.533 55.467 140.8 98.133 204.8zM115.2 345.6c-8.533 34.133-12.8 68.267-12.8 102.4s4.267 68.267 12.8 102.4h174.933c-4.267-34.133-8.533-68.267-8.533-102.4s4.267-68.267 8.533-102.4h-174.933zM157.867 243.2h149.333c17.067-64 38.4-123.733 72.533-183.467-93.867 34.133-174.933 98.133-221.867 183.467zM307.2 652.8h-149.333c51.2 85.333 128 149.333 221.867 183.467-29.867-59.733-55.467-119.467-72.533-183.467zM512 38.4c-42.667 59.733-76.8 128-98.133 204.8h196.267c-21.333-72.533-55.467-140.8-98.133-204.8zM631.467 345.6h-238.933c-4.267 34.133-8.533 68.267-8.533 102.4s4.267 68.267 8.533 102.4h238.933c4.267-34.133 8.533-68.267 8.533-102.4s-4.267-68.267-8.533-102.4zM644.267 59.733c29.867 55.467 55.467 119.467 72.533 183.467h149.333c-46.933-85.333-128-149.333-221.867-183.467zM733.867 345.6c4.267 34.133 8.533 68.267 8.533 102.4s-4.267 68.267-8.533 102.4h174.933c8.533-34.133 12.8-68.267 12.8-102.4s-4.267-68.267-12.8-102.4h-174.933z" />
<glyph unicode="&#xe91e;" glyph-name="lines" d="M0 814.933h1024v-149.333h-1024v149.333zM0 524.8h1024v-149.333h-1024v149.333zM0 230.4h1024v-149.333h-1024v149.333z" />
<glyph unicode="&#xe91f;" glyph-name="logout" d="M405.333 243.2l81.067-81.067 281.6 285.867-285.867 285.867-76.8-81.067 145.067-149.333h-550.4v-115.2h550.4l-145.067-145.067zM908.8 960h-793.6c-64 0-115.2-51.2-115.2-115.2v-226.133h115.2v226.133h797.867v-797.867h-797.867v230.4h-115.2v-226.133c0-64 51.2-115.2 115.2-115.2h797.867c64 0 115.2 51.2 115.2 115.2v793.6c-4.267 64-55.467 115.2-119.467 115.2z" />
<glyph unicode="&#xe920;" glyph-name="mana" d="M529.067 494.933c0 17.067 12.8 29.867 29.867 29.867s29.867-12.8 29.867-29.867c0-17.067-12.8-29.867-29.867-29.867s-29.867 12.8-29.867 29.867zM614.4 324.267c21.333 0 38.4 17.067 38.4 38.4s-17.067 38.4-38.4 38.4c-21.333 0-38.4-17.067-38.4-38.4 0-17.067 17.067-38.4 38.4-38.4zM473.6 614.4c12.8 0 25.6 12.8 25.6 25.6s-12.8 25.6-25.6 25.6-25.6-12.8-25.6-25.6c0-17.067 12.8-25.6 25.6-25.6zM802.133 302.933v-4.267c-4.267-157.867-132.267-285.867-290.133-285.867s-285.867 128-290.133 285.867v4.267h580.267zM584.533 238.933c0 17.067-12.8 29.867-29.867 29.867s-29.867-12.8-29.867-29.867 12.8-29.867 29.867-29.867c17.067 0 29.867 12.8 29.867 29.867zM401.067 264.533c-25.6 0-46.933-21.333-46.933-46.933s21.333-46.933 46.933-46.933c25.6 0 46.933 21.333 46.933 46.933s-21.333 46.933-46.933 46.933zM456.533 354.133c25.6 0 46.933 21.333 46.933 46.933s-21.333 46.933-46.933 46.933c-25.6 0-46.933-21.333-46.933-46.933s21.333-46.933 46.933-46.933zM878.933 302.933c0-200.533-162.133-366.933-366.933-366.933s-366.933 162.133-366.933 366.933c0 136.533 72.533 260.267 192 324.267v187.733c-21.333 4.267-38.4 21.333-38.4 42.667v59.733c0 25.6 21.333 42.667 42.667 42.667h332.8c25.6 0 42.667-21.333 42.667-42.667v-55.467c0-21.333-17.067-42.667-38.4-42.667v-192c123.733-68.267 200.533-192 200.533-324.267zM840.533 302.933c0 128-76.8 243.2-192 298.667h-4.267v256h34.133c4.267 0 4.267 4.267 4.267 4.267v55.467c0 4.267-4.267 4.267-4.267 4.267h-332.8c-4.267 0-8.533-4.267-8.533-4.267v-55.467c0-4.267 4.267-4.267 4.267-4.267h34.133v-256h-4.267c-115.2-51.2-192-170.667-192-298.667 0-179.2 145.067-328.533 328.533-328.533s332.8 145.067 332.8 328.533z" />
<glyph unicode="&#xe921;" glyph-name="mandatory" d="M981.333 725.333v-618.667c0-93.867-76.8-170.667-170.667-170.667h-311.467c-46.933 0-89.6 17.067-119.467 51.2l-337.067 341.333c0 0 55.467 51.2 55.467 55.467 8.533 8.533 21.333 12.8 34.133 12.8 8.533 0 17.067-4.267 25.6-8.533 0 0 183.467-106.667 183.467-106.667v507.733c0 34.133 29.867 64 64 64s64-29.867 64-64v-298.667h42.667v405.333c0 34.133 29.867 64 64 64s64-29.867 64-64v-405.333h42.667v362.667c0 34.133 29.867 64 64 64s64-29.867 64-64v-362.667h42.667v234.667c0 34.133 29.867 64 64 64s64-29.867 64-64z" />
<glyph unicode="&#xe922;" glyph-name="niche" d="M512 960c-196.267 0-358.4-162.133-358.4-358.4 0-268.8 358.4-665.6 358.4-665.6s358.4 396.8 358.4 665.6c0 196.267-162.133 358.4-358.4 358.4zM512 473.6c-72.533 0-128 55.467-128 128s55.467 128 128 128 128-55.467 128-128-55.467-128-128-128z" />
<glyph unicode="&#xe923;" glyph-name="no036" d="M89.6 145.067v627.2c0 46.933 29.867 85.333 72.533 98.133v-46.933c-17.067-12.8-29.867-29.867-29.867-51.2v-584.533l-42.667-42.667zM409.6 465.067h-46.933v85.333h132.267l123.733 123.733h-46.933v226.133l136.533-136.533 51.2 51.2-149.333 145.067h-332.8c-42.667 0-81.067-38.4-81.067-81.067v-627.2l213.333 213.333zM686.933 51.2h-452.267l-42.667-42.667c0 0 0 0 0 0h494.933c51.2 0 93.867 38.4 102.4 85.333h-42.667c-8.533-25.6-34.133-42.667-59.733-42.667zM691.2 507.733v-42.667h-42.667l-81.067-81.067h123.733v-81.067h-204.8l-166.4-166.4h452.267c42.667 0 81.067 38.4 81.067 81.067v452.267l-162.133-162.133zM59.733-64l-59.733 59.733 964.267 964.267 59.733-59.733-964.267-964.267z" />
<glyph unicode="&#xe924;" glyph-name="notes" d="M614.4 960h-413.867c-59.733 0-106.667-46.933-106.667-102.4v-819.2c0-55.467 46.933-102.4 102.4-102.4h627.2c55.467 0 102.4 46.933 102.4 102.4v614.4l-311.467 307.2zM563.2 601.6v281.6l290.133-281.6h-290.133z" />
<glyph unicode="&#xe925;" glyph-name="noweb" d="M0 362.667c0 132.267 98.133 238.933 226.133 256 55.467 102.4 162.133 170.667 285.867 170.667 64 0 119.467-17.067 170.667-51.2l-580.267-580.267c-64 46.933-102.4 123.733-102.4 204.8zM823.467 533.333c-4.267 29.867-17.067 55.467-25.6 81.067l-507.733-507.733h520.533c119.467 0 213.333 93.867 213.333 213.333 0 110.933-85.333 204.8-200.533 213.333zM1024 900.267l-59.733 59.733-964.267-964.267 59.733-59.733 964.267 964.267z" />
<glyph unicode="&#xe926;" glyph-name="onlinepayment" d="M1024 448c0 136.533-55.467 264.533-149.333 362.667-98.133 98.133-226.133 149.333-362.667 149.333 0 0 0 0 0 0s0 0 0 0 0 0-4.267 0c0 0 0 0 0 0s0 0 0 0c-136.533 0-260.267-55.467-358.4-149.333-98.133-98.133-149.333-226.133-149.333-362.667 0-281.6 230.4-512 512-512 0 0 0 0 0 0s0 0 0 0c8.533 0 12.8 0 21.333 0-21.333 12.8-42.667 29.867-59.733 46.933-68.267 21.333-132.267 98.133-166.4 204.8 21.333 4.267 42.667 8.533 59.733 12.8 0 12.8-4.267 25.6-4.267 38.4 0 0 0 0 0 0-21.333 0-46.933-4.267-68.267-8.533-17.067 59.733-25.6 128-29.867 196.267h153.6c8.533 12.8 17.067 29.867 29.867 42.667h-183.467c0 81.067 12.8 153.6 34.133 221.867 59.733-12.8 123.733-21.333 187.733-21.333v-153.6c12.8 12.8 25.6 21.333 42.667 29.867v119.467c68.267 0 132.267 12.8 192 25.6 8.533-29.867 17.067-64 25.6-93.867 12.8 0 29.867-4.267 42.667-4.267-8.533 38.4-17.067 76.8-25.6 110.933 42.667 12.8 81.067 25.6 110.933 42.667 59.733-72.533 98.133-166.4 106.667-260.267 17.067-17.067 29.867-38.4 42.667-55.467 0 4.267 0 12.8 0 17.067 0 0 0 0 0 0s0 0 0 0 0 0 0 0zM145.067 742.4c34.133-17.067 72.533-29.867 115.2-38.4-21.333-68.267-34.133-149.333-38.4-230.4h-179.2c4.267 93.867 38.4 187.733 102.4 268.8zM132.267 170.667c-51.2 72.533-85.333 162.133-89.6 256h179.2c0-76.8 12.8-145.067 29.867-209.067-42.667-12.8-85.333-29.867-119.467-46.933zM371.2 0c-81.067 25.6-153.6 72.533-209.067 136.533 29.867 17.067 68.267 29.867 106.667 42.667 21.333-76.8 59.733-136.533 102.4-179.2zM273.067 738.133c-34.133 12.8-68.267 21.333-98.133 34.133 0 4.267 4.267 4.267 4.267 8.533 55.467 55.467 119.467 93.867 192 115.2-25.6-21.333-46.933-55.467-68.267-89.6-8.533-21.333-21.333-42.667-29.867-68.267zM486.4 708.267c-55.467 0-115.2 8.533-174.933 21.333 12.8 21.333 21.333 38.4 29.867 55.467 42.667 76.8 93.867 119.467 149.333 132.267v-209.067zM529.067 708.267v209.067c59.733-8.533 110.933-55.467 153.6-132.267 8.533-17.067 17.067-34.133 25.6-51.2-55.467-12.8-115.2-21.333-179.2-25.6zM746.667 742.4c-8.533 21.333-17.067 42.667-29.867 59.733-21.333 38.4-42.667 68.267-68.267 89.6 76.8-17.067 140.8-55.467 196.267-110.933 0 0 0 0 0 0-25.6-12.8-59.733-25.6-98.133-38.4zM721.067 541.867c-166.4 0-298.667-136.533-298.667-302.933s132.267-302.933 298.667-302.933c166.4 0 298.667 136.533 298.667 302.933 0 170.667-132.267 302.933-298.667 302.933zM853.333 110.933c-8.533-8.533-21.333-17.067-34.133-25.6s-25.6-12.8-42.667-17.067c-12.8-4.267-29.867-4.267-42.667-4.267-17.067 0-38.4 4.267-51.2 8.533-17.067 8.533-29.867 17.067-46.933 25.6-12.8 12.8-25.6 25.6-34.133 38.4s-17.067 29.867-21.333 46.933h-51.2l12.8 34.133h25.6c0 8.533 0 12.8 0 21.333v4.267h-34.133l12.8 34.133h25.6c4.267 17.067 8.533 34.133 21.333 51.2 8.533 17.067 21.333 29.867 34.133 42.667s29.867 21.333 46.933 29.867c17.067 8.533 38.4 12.8 59.733 12.8 29.867 0 59.733-8.533 81.067-21.333s38.4-29.867 51.2-55.467l-51.2-34.133c-4.267 8.533-8.533 17.067-17.067 25.6s-12.8 12.8-21.333 17.067c-8.533 4.267-17.067 8.533-21.333 8.533-8.533 0-17.067 4.267-25.6 4.267-12.8 0-25.6 0-34.133-4.267s-17.067-8.533-25.6-17.067c-8.533-8.533-12.8-12.8-21.333-21.333-4.267-8.533-8.533-17.067-12.8-29.867h123.733l-12.8-34.133h-115.2v-4.267c0-8.533 0-12.8 0-21.333h110.933l-12.8-34.133h-89.6c8.533-17.067 21.333-34.133 34.133-42.667 17.067-12.8 34.133-17.067 51.2-17.067 8.533 0 17.067 0 25.6 4.267 8.533 0 17.067 4.267 25.6 8.533s12.8 8.533 21.333 17.067c8.533 8.533 12.8 12.8 17.067 25.6l55.467-29.867c0-25.6-8.533-34.133-17.067-46.933z" />
<glyph unicode="&#xe927;" glyph-name="package" d="M512 580.267l-448 204.8 448 174.933 448-174.933-448-204.8zM46.933 755.2l448-204.8v-614.4l-448 238.933v580.267zM977.067 174.933l-448-238.933v614.4l448 204.8v-580.267z" />
<glyph unicode="&#xe928;" glyph-name="payment" d="M823.467 162.133c-12.8-59.733-64-81.067-115.2-98.133-38.4-17.067-81.067-21.333-123.733-25.6-29.867 0-59.733-4.267-89.6-4.267-68.267 0-132.267 12.8-192 34.133-42.667 17.067-81.067 42.667-102.4 85.333-29.867 4.267-55.467 8.533-81.067 17.067s-51.2 17.067-72.533 29.867c-29.867 17.067-46.933 42.667-46.933 81.067 0 149.333 0 294.4 0 439.467 0 34.133 12.8 59.733 38.4 76.8 38.4 29.867 85.333 38.4 136.533 46.933s102.4 8.533 149.333 4.267c59.733-4.267 119.467-17.067 170.667-51.2 4.267 0 4.267-4.267 8.533-4.267 59.733 46.933 128 59.733 200.533 64 38.4 4.267 76.8 0 115.2-4.267 51.2-4.267 102.4-17.067 149.333-42.667 38.4-17.067 55.467-46.933 55.467-89.6 0-140.8 0-281.6 0-418.133 0-42.667-21.333-72.533-55.467-93.867-29.867-17.067-64-29.867-98.133-34.133-12.8-8.533-29.867-8.533-46.933-12.8zM507.733 448c68.267 0 132.267 8.533 196.267 29.867 102.4 34.133 42.667 85.333 17.067 98.133-46.933 21.333-98.133 34.133-149.333 38.4-55.467 4.267-110.933 4.267-166.4-4.267-42.667-8.533-89.6-21.333-128-42.667-34.133-21.333-34.133-42.667-4.267-64 21.333-17.067 51.2-29.867 76.8-34.133 55.467-12.8 106.667-21.333 157.867-21.333zM251.733 273.067c0-29.867 0-55.467 0-81.067s8.533-42.667 29.867-51.2c25.6-12.8 46.933-21.333 72.533-29.867 64-21.333 128-21.333 192-21.333 51.2 0 98.133 8.533 145.067 25.6 25.6 8.533 51.2 17.067 68.267 38.4 4.267 4.267 12.8 12.8 12.8 21.333 0 29.867 0 59.733 0 93.867-132.267-72.533-388.267-72.533-520.533 4.267zM251.733 448c0-29.867 0-55.467 0-85.333 0-12.8 4.267-25.6 12.8-34.133 17.067-12.8 38.4-25.6 55.467-29.867 55.467-21.333 115.2-29.867 174.933-29.867 46.933 0 93.867 4.267 136.533 12.8 38.4 4.267 76.8 17.067 106.667 42.667 12.8 8.533 25.6 21.333 25.6 34.133 0 29.867 0 59.733 0 89.6-166.4-72.533-337.067-72.533-512 0zM968.533 733.867c-4.267 21.333-17.067 29.867-25.6 34.133-38.4 21.333-81.067 29.867-128 34.133-68.267 8.533-136.533 4.267-204.8-17.067-29.867-8.533-55.467-21.333-72.533-46.933 12.8-25.6 34.133-34.133 55.467-42.667 42.667-17.067 85.333-25.6 132.267-25.6 38.4 0 76.8 0 115.2 8.533 34.133 4.267 68.267 12.8 98.133 34.133 12.8 4.267 21.333 12.8 29.867 21.333zM273.067 665.6c12.8 0 29.867 0 42.667 0 46.933 4.267 89.6 12.8 132.267 34.133 8.533 4.267 21.333 12.8 29.867 21.333 12.8 8.533 8.533 21.333 0 34.133-8.533 4.267-17.067 12.8-25.6 17.067-64 29.867-128 34.133-196.267 34.133-29.867 0-59.733-4.267-85.333-12.8-38.4-8.533-72.533-17.067-102.4-42.667-12.8-12.8-17.067-21.333 0-34.133 12.8-8.533 25.6-17.067 42.667-21.333 46.933-25.6 102.4-34.133 162.133-29.867zM772.267 614.4c34.133-21.333 51.2-51.2 55.467-89.6 42.667 8.533 85.333 17.067 119.467 38.4 8.533 4.267 17.067 17.067 17.067 25.6 0 21.333 4.267 46.933 0 68.267-59.733-25.6-123.733-38.4-192-42.667zM55.467 652.8c0-21.333 0-42.667 0-59.733s8.533-29.867 21.333-38.4c29.867-21.333 68.267-29.867 102.4-34.133 4.267 0 8.533 0 17.067 0 0 38.4 17.067 64 42.667 89.6-64 0-123.733 12.8-183.467 42.667zM823.467 221.867c42.667 0 98.133 17.067 128 38.4 4.267 4.267 12.8 12.8 12.8 17.067 0 25.6 4.267 46.933 0 72.533-46.933-12.8-93.867-25.6-140.8-38.4 0-29.867 0-55.467 0-89.6zM968.533 503.467c-51.2-12.8-93.867-25.6-145.067-38.4 0-12.8 0-29.867 0-42.667 0-17.067-4.267-29.867 4.267-46.933 17.067 4.267 34.133 4.267 51.2 8.533 25.6 8.533 46.933 21.333 72.533 29.867 8.533 4.267 17.067 12.8 17.067 29.867-4.267 17.067 0 38.4 0 59.733zM196.267 209.067c0 34.133 0 68.267 0 98.133-46.933 8.533-93.867 17.067-136.533 38.4 0-17.067 0-34.133 0-51.2-4.267-29.867 8.533-46.933 34.133-59.733 8.533-4.267 17.067-8.533 29.867-12.8 21.333 0 42.667-4.267 72.533-12.8zM55.467 494.933c0-21.333 0-38.4 0-59.733 0-12.8 4.267-21.333 17.067-29.867 8.533-4.267 21.333-12.8 29.867-17.067 29.867-12.8 59.733-21.333 93.867-21.333 0 34.133 0 64 0 93.867-46.933 8.533-93.867 21.333-140.8 34.133z" />
<glyph unicode="&#xe929;" glyph-name="person" d="M512 960c-140.8 0-256-115.2-256-259.2s115.2-259.2 256-259.2 256 115.2 256 259.2c0 144-115.2 259.2-256 259.2zM512 377.6c-169.6 0-512-86.4-512-259.2v-195.2h1024v195.2c0 172.8-342.4 259.2-512 259.2z" />
<glyph unicode="&#xe92a;" glyph-name="photo" d="M1024 51.2v793.6c0 64-51.2 115.2-115.2 115.2h-793.6c-64 0-115.2-51.2-115.2-115.2v-797.867c0-59.733 51.2-110.933 115.2-110.933h797.867c59.733 0 110.933 51.2 110.933 115.2zM311.467 362.667l140.8-170.667 200.533 256 256-341.333h-793.6l196.267 256z" />
<glyph unicode="&#xe92b;" glyph-name="plant" d="M256 409.6c-54.4-57.6-99.2-121.6-176-150.4-25.6 86.4-41.6 172.8-12.8 259.2 28.8 89.6 92.8 147.2 182.4 176-86.4 22.4-179.2 19.2-249.6 80 102.4 131.2 275.2 208 419.2 105.6 35.2-22.4 57.6-64 86.4-96 6.4-6.4 9.6-16 12.8-28.8 134.4 195.2 364.8 192 502.4 19.2-35.2-28.8-73.6-44.8-118.4-54.4-41.6-9.6-86.4-16-131.2-25.6 89.6-32 153.6-86.4 182.4-176 28.8-86.4 16-172.8-12.8-259.2-80 25.6-121.6 89.6-176 150.4-6.4-41.6-12.8-83.2-19.2-121.6-9.6-76.8-19.2-150.4-32-227.2-3.2-19.2-22.4-41.6-38.4-54.4-51.2-35.2-112-41.6-169.6-38.4-44.8 0-86.4 9.6-128 22.4-38.4 9.6-60.8 38.4-67.2 83.2-19.2 108.8-35.2 220.8-54.4 336zM688 432c-121.6-32-236.8-28.8-355.2 0 0-12.8 3.2-19.2 3.2-28.8 16-99.2 32-198.4 44.8-300.8 3.2-28.8 16-41.6 41.6-48 57.6-12.8 112-12.8 169.6 0 28.8 6.4 41.6 19.2 44.8 51.2 6.4 54.4 16 105.6 22.4 156.8 12.8 57.6 19.2 108.8 28.8 169.6zM144 800c99.2-22.4 198.4-44.8 294.4-64-22.4 83.2-156.8 169.6-294.4 64zM665.6 512c-51.2 57.6-86.4 64-124.8 25.6-19.2 0-35.2 0-51.2 0-6.4 0-12.8 0-19.2 3.2-38.4 28.8-86.4 16-115.2-28.8 105.6-32 204.8-28.8 310.4 0zM739.2 614.4c16-19.2 41.6-44.8 44.8-67.2 0-38.4 25.6-57.6 44.8-80s41.6-44.8 64-73.6c12.8 115.2-64 220.8-153.6 220.8zM297.6 614.4c-118.4-6.4-188.8-128-160-217.6 28.8 35.2 60.8 70.4 89.6 102.4 3.2 3.2 9.6 9.6 9.6 16-9.6 48 19.2 73.6 60.8 99.2zM873.6 796.8c-89.6 51.2-201.6 22.4-256-51.2 83.2 16 169.6 35.2 256 51.2z" />
<glyph unicode="&#xe92c;" glyph-name="stowaway" d="M1011.2 456.533l-264.533 106.667 29.867 29.867c4.267 4.267 4.267 12.8 4.267 17.067-4.267 4.267-8.533 8.533-12.8 8.533h-157.867c0 93.867 76.8 157.867 174.933 157.867 4.267 0 8.533 4.267 12.8 8.533s4.267 8.533 0 17.067l-81.067 153.6c-4.267 0-12.8 4.267-17.067 4.267-46.933 0-93.867-17.067-132.267-42.667-25.6-17.067-42.667-38.4-55.467-59.733-12.8 25.6-29.867 42.667-55.467 59.733-38.4 25.6-85.333 42.667-132.267 42.667-4.267 0-12.8-4.267-12.8-8.533l-81.067-153.6c-4.267-4.267-4.267-8.533 0-17.067 4.267-4.267 8.533-8.533 12.8-8.533 98.133 0 174.933-59.733 174.933-153.6v0h-140.8c-4.267 0-12.8-4.267-12.8-8.533-4.267-4.267 0-12.8 4.267-17.067l21.333-21.333-277.333-110.933c-8.533-8.533-12.8-12.8-8.533-21.333 0-8.533 8.533-12.8 17.067-12.8 0 0 0 0 0 0l98.133 4.267-76.8-98.133c0-4.267-4.267-8.533 0-12.8 0-4.267 4.267-8.533 8.533-8.533l85.333-34.133v-179.2c0-8.533 4.267-12.8 8.533-12.8l362.667-145.067c0 0 4.267 0 4.267 0s4.267 0 4.267 0l362.667 145.067c4.267 4.267 8.533 8.533 8.533 12.8v179.2l85.333 34.133c4.267 0 8.533 4.267 8.533 8.533s0 8.533-4.267 12.8l-72.533 98.133 102.4-4.267c8.533 0 12.8 4.267 17.067 12.8 0 8.533-4.267 12.8-12.8 17.067zM110.933 460.8l200.533 81.067 8.533-8.533-170.667-68.267-38.4-4.267zM153.6 294.4v4.267l-72.533 29.867 72.533 98.133 328.533-132.267-72.533-98.133-256 102.4v-4.267zM494.933-25.6l-328.533 132.267v153.6l243.2-98.133c0 0 4.267 0 4.267 0h4.267c0 0 4.267 0 4.267 0v0c0 0 0 0 4.267 0v0c0 0 4.267 0 4.267 4.267l64 85.333v-277.333zM494.933 328.533l-302.933 119.467 149.333 59.733 153.6-162.133v-17.067zM529.067 345.6l162.133 157.867 140.8-55.467-302.933-119.467v17.067zM857.6 106.667l-328.533-132.267v281.6l64-85.333c0 0 0-4.267 4.267-4.267v0c0 0 4.267 0 4.267 0v0c0 0 4.267 0 4.267 0v0 0c0 0 4.267 0 4.267 0l243.2 98.133v-157.867zM942.933 328.533l-328.533-132.267-72.533 98.133 328.533 132.267 72.533-98.133zM874.667 465.067l-162.133 64 12.8 8.533 187.733-76.8-38.4 4.267z" />
<glyph unicode="&#xe92d;" glyph-name="recovery" d="M746.667 477.867c68.267 0 140.8-21.333 196.267-72.533 110.933-102.4 115.2-277.333 8.533-384s-277.333-115.2-384-8.533c-93.867 85.333-110.933 221.867-51.2 328.533l51.2-46.933c-34.133-76.8-17.067-170.667 46.933-230.4 81.067-76.8 209.067-72.533 290.133 8.533 76.8 81.067 72.533 209.067-8.533 290.133-42.667 38.4-93.867 55.467-145.067 55.467l4.267-153.6-170.667 162.133 162.133 170.667v-119.467zM337.067 209.067c0 0 0 0 0 0-17.067 8.533-38.4 17.067-55.467 25.6-21.333 8.533-29.867 25.6-29.867 51.2s0 51.2 0 81.067c29.867-17.067 64-29.867 102.4-38.4 4.267 17.067 12.8 34.133 21.333 51.2-17.067 4.267-34.133 8.533-51.2 17.067-21.333 8.533-38.4 21.333-55.467 29.867-12.8 8.533-17.067 17.067-12.8 34.133 0 29.867 0 55.467 0 85.333 68.267-29.867 132.267-46.933 200.533-51.2 17.067 21.333 38.4 38.4 64 55.467 0 0-4.267 0-4.267 0-51.2 0-106.667 4.267-157.867 21.333-34.133 0-59.733 12.8-81.067 29.867-29.867 21.333-29.867 42.667 4.267 64 38.4 25.6 81.067 34.133 128 42.667 55.467 8.533 110.933 8.533 166.4 4.267 51.2-4.267 102.4-17.067 149.333-38.4 12.8-4.267 42.667-29.867 38.4-55.467 55.467 0 106.667-12.8 153.6-34.133 17.067 4.267 29.867 8.533 46.933 12.8 0-12.8 0-25.6 0-38.4 21.333-12.8 38.4-25.6 55.467-42.667 0 98.133 0 200.533 0 298.667 0 42.667-17.067 72.533-51.2 93.867-46.933 29.867-98.133 38.4-149.333 42.667-34.133 8.533-72.533 8.533-110.933 8.533-72.533-4.267-140.8-21.333-200.533-64-4.267 0-8.533 4.267-8.533 4.267-51.2 34.133-110.933 46.933-170.667 51.2-51.2 0-102.4 0-153.6-8.533-46.933-8.533-93.867-17.067-136.533-46.933-25.6-21.333-38.4-42.667-38.4-76.8 0-145.067 0-294.4 0-439.467 0-38.4 17.067-64 46.933-81.067 21.333-12.8 46.933-25.6 72.533-29.867 25.6-8.533 51.2-12.8 81.067-17.067 17.067-46.933 55.467-68.267 102.4-85.333 12.8-4.267 29.867-8.533 42.667-12.8-4.267 17.067-8.533 34.133-8.533 55.467zM964.267 686.933c0-8.533-8.533-21.333-17.067-25.6-34.133-21.333-76.8-34.133-119.467-38.4-4.267 38.4-17.067 68.267-55.467 89.6 68.267 0 128 12.8 192 42.667 4.267-25.6 4.267-46.933 0-68.267zM610.133 883.2c68.267 17.067 136.533 25.6 204.8 17.067 42.667-4.267 85.333-12.8 128-34.133 12.8-8.533 21.333-12.8 25.6-34.133-8.533-8.533-17.067-17.067-25.6-21.333-29.867-17.067-64-29.867-98.133-34.133-38.4-4.267-76.8-8.533-115.2-8.533-46.933 0-89.6 8.533-132.267 25.6-21.333 8.533-42.667 17.067-55.467 42.667 12.8 29.867 38.4 42.667 68.267 46.933zM68.267 844.8c25.6 25.6 64 34.133 98.133 38.4 29.867 4.267 59.733 12.8 85.333 12.8 68.267 0 132.267-4.267 196.267-34.133 8.533-4.267 17.067-8.533 25.6-17.067 12.8-8.533 12.8-21.333 0-34.133-8.533-8.533-17.067-12.8-29.867-21.333-42.667-21.333-85.333-29.867-132.267-34.133-17.067 0-29.867 0-42.667 0-55.467 4.267-110.933 12.8-162.133 29.867-12.8 4.267-29.867 12.8-42.667 21.333-12.8 17.067-8.533 25.6 4.267 38.4zM196.267 307.2c-25.6 8.533-51.2 12.8-72.533 21.333-8.533 4.267-21.333 8.533-29.867 12.8-25.6 12.8-38.4 29.867-34.133 59.733 0 17.067 0 29.867 0 51.2 46.933-25.6 89.6-34.133 136.533-38.4 0-42.667 0-72.533 0-106.667zM55.467 529.067c0 21.333 0 42.667 0 59.733 46.933-12.8 93.867-21.333 140.8-34.133 0-29.867 0-59.733 0-93.867-34.133 4.267-64 12.8-93.867 21.333-8.533 4.267-21.333 12.8-29.867 17.067-12.8 8.533-17.067 17.067-17.067 29.867zM196.267 618.667c-4.267 0-12.8-4.267-17.067 0-34.133 0-68.267 12.8-102.4 29.867-12.8 8.533-21.333 21.333-21.333 38.4s0 38.4 0 59.733c59.733-25.6 115.2-38.4 179.2-42.667-21.333-25.6-42.667-51.2-38.4-85.333z" />
<glyph unicode="&#xe92e;" glyph-name="regentry" d="M554.667 913.067c-260.267 0-469.333-209.067-469.333-469.333h-85.333l136.533-209.067 140.8 209.067h-85.333c0 200.533 162.133 362.667 362.667 362.667s362.667-162.133 362.667-362.667-162.133-362.667-362.667-362.667c-98.133 0-192 42.667-251.733 106.667l-72.533-72.533c85.333-85.333 200.533-136.533 332.8-136.533 251.733 4.267 460.8 213.333 460.8 473.6s-213.333 460.8-469.333 460.8zM332.8 234.667h430.933v179.2h-110.933v-68.267l-106.667 102.4 102.4 102.4v-68.267h110.933v179.2h-426.667v-426.667z" />
<glyph unicode="&#xe92f;" glyph-name="reserve" d="M841.6 864c48 0 86.4-38.4 86.4-86.4v-662.4c0-48-38.4-86.4-86.4-86.4h-659.2c-48 3.2-86.4 41.6-86.4 89.6v659.2c0 48 38.4 86.4 86.4 86.4h659.2zM841.6 960h-659.2c-99.2 0-182.4-83.2-182.4-182.4v-662.4c0-96 83.2-179.2 182.4-179.2h662.4c99.2 0 182.4 83.2 182.4 182.4v659.2c-3.2 99.2-86.4 182.4-185.6 182.4v0zM611.2 192l-99.2 144h-108.8v-144h-118.4v512h220.8c44.8 0 83.2-6.4 118.4-22.4 32-16 57.6-35.2 76.8-64s25.6-60.8 25.6-99.2c0-38.4-9.6-70.4-28.8-99.2s-44.8-48-76.8-64l115.2-163.2h-124.8zM582.4 585.6c-19.2 16-44.8 22.4-80 22.4h-96v-179.2h96c35.2 0 64 6.4 80 22.4 19.2 16 28.8 38.4 28.8 67.2-3.2 28.8-9.6 51.2-28.8 67.2z" />
<glyph unicode="&#xe930;" glyph-name="risk" d="M640 320v85.333h-51.2l-85.333-85.333h136.533zM362.667 422.4c0 8.533 0 17.067 0 25.6 0 12.8 0 29.867 4.267 42.667h68.267l85.333 85.333h-128c46.933 89.6 140.8 149.333 247.467 149.333 8.533 0 17.067 0 25.6-4.267l89.6 89.6c-34.133 12.8-76.8 21.333-115.2 21.333-166.4 0-307.2-106.667-362.667-256h-149.333v-85.333h132.267c-4.267-12.8-4.267-29.867-4.267-42.667s0-29.867 4.267-42.667h-132.267v-85.333h136.533l98.133 102.4zM640 170.667c-76.8 0-149.333 34.133-200.533 85.333l-76.8-76.8c72.533-72.533 170.667-115.2 277.333-115.2 98.133 0 187.733 38.4 256 98.133l-76.8 76.8c-46.933-42.667-110.933-68.267-179.2-68.267zM1024 900.267l-59.733 59.733-964.267-964.267 59.733-59.733 964.267 964.267z" />
<glyph unicode="&#xe931;" glyph-name="settings" d="M891.733 396.8c0 17.067 4.267 34.133 4.267 51.2s0 34.133-4.267 51.2l106.667 85.333c8.533 8.533 12.8 21.333 4.267 34.133l-102.4 179.2c-4.267 12.8-21.333 17.067-29.867 12.8l-128-51.2c-25.6 21.333-55.467 38.4-85.333 51.2l-17.067 128c0 12.8-12.8 21.333-25.6 21.333h-204.8c-12.8 0-25.6-8.533-25.6-21.333l-17.067-136.533c-34.133-12.8-59.733-29.867-89.6-51.2l-128 51.2c-8.533 4.267-21.333 0-29.867-8.533l-102.4-179.2c-4.267-8.533-4.267-25.6 8.533-29.867l106.667-85.333c-4.267-17.067-4.267-34.133-4.267-51.2s0-34.133 4.267-51.2l-106.667-85.333c-8.533-8.533-12.8-21.333-4.267-34.133l102.4-179.2c4.267-12.8 21.333-17.067 29.867-12.8l128 51.2c25.6-21.333 55.467-38.4 85.333-51.2l17.067-128c0-12.8 12.8-21.333 25.6-21.333h204.8c12.8 0 25.6 8.533 25.6 21.333l21.333 136.533c29.867 12.8 59.733 29.867 85.333 51.2l128-51.2c12.8-4.267 25.6 0 29.867 12.8l102.4 179.2c4.267 12.8 4.267 25.6-4.267 34.133l-110.933 76.8zM512 268.8c-98.133 0-179.2 81.067-179.2 179.2s81.067 179.2 179.2 179.2 179.2-81.067 179.2-179.2-81.067-179.2-179.2-179.2z" />
<glyph unicode="&#xe932;" glyph-name="sms" d="M896 729.6h-443.733c-29.867 0-55.467-25.6-55.467-55.467v-332.8c0-29.867 25.6-55.467 55.467-55.467h443.733c29.867 0 55.467 25.6 55.467 55.467v332.8c0 29.867-25.6 55.467-55.467 55.467zM896 618.667l-221.867-140.8-221.867 140.8v55.467l221.867-140.8 221.867 140.8v-55.467zM640 221.867v-55.467h-486.4v652.8h486.4v-25.6h85.333v25.6c0 76.8-64 140.8-140.8 140.8h-371.2c-81.067 0-140.8-64-140.8-140.8v-746.667c0-72.533 59.733-136.533 140.8-136.533h371.2c76.8 0 140.8 64 140.8 140.8v145.067h-85.333zM490.667 29.867h-187.733v46.933h187.733v-46.933z" />
<glyph unicode="&#xe933;" glyph-name="solclaim" d="M1024 917.333v-938.667h-938.667v68.267h234.667v51.2h38.4c8.533-4.267 17.067-4.267 29.867-4.267h298.667c42.667 0 76.8 34.133 76.8 76.8 0 0 0 0 0 0 29.867 12.8 46.933 38.4 46.933 72.533 0 0 0 0 0 0 29.867 12.8 46.933 38.4 46.933 72.533s-21.333 59.733-46.933 72.533c0 0 0 0 0 0 0 42.667-34.133 76.8-76.8 76.8h-106.667c21.333 21.333 29.867 55.467 17.067 89.6-12.8 25.6-38.4 42.667-68.267 42.667-12.8 0-21.333-4.267-34.133-8.533l-217.6-98.133v29.867h-238.933v396.8h362.667v-209.067h209.067v209.067h366.933zM0 89.6h281.6v51.2h89.6c4.267-4.267 12.8-4.267 17.067-4.267h298.667c21.333 0 34.133 12.8 34.133 34.133s-12.8 34.133-34.133 34.133h-136.533v12.8h183.467c21.333 0 34.133 12.8 34.133 29.867 0 21.333-12.8 29.867-34.133 29.867h-179.2v12.8h234.667c21.333 0 34.133 8.533 34.133 29.867s-12.8 29.867-34.133 29.867h-230.4v12.8h183.467c21.333 0 29.867 12.8 29.867 34.133s-12.8 34.133-34.133 34.133h-230.4l93.867 64c12.8 8.533 21.333 29.867 12.8 46.933s-29.867 25.6-51.2 17.067l-251.733-119.467c-4.267 0-4.267-4.267-8.533-4.267-4.267-4.267-8.533-8.533-12.8-12.8h-8.533v55.467h-281.6v-388.267z" />
<glyph unicode="&#xe934;" glyph-name="solunion" d="M759.467 870.4v-136.533h-601.6c0 0-128-341.333 106.667-341.333s469.333 0 469.333 0 34.133 0 34.133-34.133-8.533-98.133-8.533-98.133h-541.867c0 0-247.467 29.867-204.8 320 0 0 8.533 140.8 72.533 298.667 0 0 21.333-8.533 85.333-8.533h588.8zM853.333 25.6c64 0 85.333-8.533 85.333-8.533 64 153.6 72.533 298.667 72.533 298.667 42.667 290.133-204.8 320-204.8 320h-541.867c0 0-8.533-64-8.533-98.133s34.133-34.133 34.133-34.133 238.933 0 469.333 0 106.667-341.333 106.667-341.333h-601.6v-136.533h588.8z" />
<glyph unicode="&#xe935;" glyph-name="splur" d="M640 960l145.067-145.067-183.467-183.467 89.6-89.6 183.467 183.467 149.333-149.333v384h-384zM384 960h-384v-384l145.067 145.067 302.933-302.933v-482.133h128v537.6l-337.067 341.333 145.067 145.067z" />
<glyph unicode="&#xe936;" glyph-name="supplier" d="M608 755.2c0-113.108-90.259-204.8-201.6-204.8s-201.6 91.692-201.6 204.8c0 113.108 90.259 204.8 201.6 204.8s201.6-91.692 201.6-204.8zM534.4 342.4c-9.6 0-19.2 3.2-28.8 9.6-16 9.6-25.6 25.6-28.8 41.6l-12.8 54.4c-3.2 19.2 0 35.2 9.6 51.2-25.6 3.2-51.2 6.4-73.6 6.4-128-6.4-400-73.6-400-211.2v-144h582.4l-48 192zM832 192l-51.2-12.8-16 64-57.6-16 35.2-134.4c22.4-3.2 41.6-16 54.4-35.2l163.2 41.6-44.8 176-38.4-12.8-60.8-6.4 16-64zM758.4 256l51.2 12.8 60.8 16-38.4 153.6-38.4-6.4 16-54.4-41.6-9.6-16 54.4-89.6-22.4 38.4-156.8 57.6 12.8zM1014.4 108.8l-227.2-57.6c-12.8 19.2-35.2 35.2-60.8 38.4l-92.8 364.8c-3.2 16-19.2 22.4-35.2 19.2l-70.4-16 12.8-54.4 41.6 12.8 83.2-342.4c-19.2-16-25.6-35.2-25.6-57.6 0-41.6 35.2-76.8 76.8-76.8 38.4 0 70.4 25.6 73.6 60.8l227.2 57.6-3.2 51.2z" />
<glyph unicode="&#xe937;" glyph-name="tags" d="M729.6 960c-42.667 0-89.6 0-132.267 0-21.333 0-38.4-8.533-51.2-21.333-140.8-140.8-281.6-281.6-422.4-422.4-25.6-25.6-25.6-51.2 0-76.8 93.867-93.867 187.733-187.733 281.6-281.6 25.6-25.6 51.2-25.6 76.8 0 140.8 140.8 281.6 281.6 422.4 422.4 17.067 12.8 21.333 29.867 21.333 51.2 0 93.867 0 183.467 0 277.333 0 34.133-17.067 51.2-51.2 51.2-51.2 0-98.133 0-145.067 0zM682.667 763.733c0 25.6 17.067 46.933 42.667 46.933s46.933-21.333 46.933-46.933c0-25.6-21.333-46.933-46.933-46.933-21.333 0-42.667 21.333-42.667 46.933zM878.933 482.133c4.267-12.8 0-21.333-8.533-29.867-34.133-51.2-64-98.133-98.133-149.333-76.8-115.2-153.6-234.667-230.4-349.867-12.8-17.067-21.333-21.333-38.4-8.533-115.2 76.8-226.133 149.333-337.067 226.133-17.067 8.533-17.067 21.333-8.533 38.4 12.8 21.333 29.867 46.933 42.667 68.267 8.533 12.8 8.533 12.8 17.067 0 55.467-55.467 115.2-115.2 170.667-170.667 8.533-8.533 17.067-17.067 29.867-21.333 29.867-12.8 55.467-4.267 76.8 21.333 123.733 123.733 247.467 247.467 371.2 371.2 4.267 4.267 4.267 8.533 8.533 12.8 0-8.533 0-8.533 4.267-8.533z" />
<glyph unicode="&#xe938;" glyph-name="tax" d="M448 192c0 174.933 145.067 320 320 320 76.8 0 145.067-25.6 196.267-68.267v324.267c4.267 51.2-38.4 98.133-93.867 98.133h-204.8c-21.333 55.467-72.533 93.867-136.533 93.867s-115.2-38.4-136.533-98.133h-209.067c-55.467 0-98.133-42.667-98.133-93.867v-674.133c0-51.2 42.667-98.133 98.133-98.133h332.8c-42.667 55.467-68.267 123.733-68.267 196.267zM529.067 861.867c29.867 0 46.933-21.333 46.933-46.933 0-29.867-25.6-46.933-46.933-46.933-29.867 0-46.933 21.333-46.933 46.933-4.267 29.867 17.067 46.933 46.933 46.933zM708.267 247.467c-8.533 0-12.8 4.267-17.067 8.533s-8.533 8.533-8.533 17.067v17.067c0 8.533 0 12.8 4.267 17.067s8.533 8.533 17.067 8.533c8.533 0 12.8-4.267 17.067-8.533s4.267-12.8 4.267-17.067v-12.8c4.267-21.333-4.267-29.867-17.067-29.867zM870.4 132.267c4.267-4.267 4.267-12.8 4.267-17.067v-21.333c0-12.8-8.533-21.333-21.333-21.333-8.533 0-12.8 4.267-17.067 8.533s-8.533 12.8-8.533 17.067v17.067c0 8.533 4.267 12.8 8.533 17.067s8.533 8.533 17.067 8.533c8.533 0 12.8-4.267 17.067-8.533zM768 448c-140.8 0-256-115.2-256-256s115.2-256 256-256 256 115.2 256 256-115.2 256-256 256zM635.733 273.067v17.067c0 21.333 4.267 34.133 17.067 46.933s29.867 17.067 51.2 17.067c21.333 0 38.4-4.267 51.2-17.067s17.067-29.867 17.067-46.933v-17.067c0-21.333-4.267-34.133-17.067-46.933s-29.867-17.067-51.2-17.067c-21.333 0-38.4 4.267-51.2 17.067-8.533 12.8-17.067 29.867-17.067 46.933zM721.067 59.733l-34.133 17.067 153.6 243.2 34.133-17.067-153.6-243.2zM925.867 98.133c0-21.333-4.267-34.133-17.067-46.933s-29.867-17.067-51.2-17.067c-21.333 0-38.4 4.267-51.2 17.067s-21.333 25.6-21.333 46.933v17.067c0 21.333 4.267 34.133 17.067 46.933s29.867 17.067 51.2 17.067c21.333 0 38.4-4.267 51.2-17.067s17.067-29.867 17.067-46.933v-17.067z" />
<glyph unicode="&#xe939;" glyph-name="ticket" d="M200.533 311.467c12.8 38.4 25.6 76.8 38.4 115.2 8.533 25.6 17.067 55.467 29.867 81.067 29.867 81.067 55.467 166.4 85.333 247.467 21.333 55.467 38.4 110.933 59.733 166.4 4.267 12.8 8.533 21.333 12.8 34.133 0 4.267 4.267 4.267 8.533 4.267 59.733-12.8 115.2-21.333 174.933-34.133 81.067-17.067 157.867-34.133 238.933-46.933 55.467-12.8 110.933-21.333 170.667-34.133 4.267-4.267 4.267-4.267 4.267-12.8-29.867-89.6-59.733-179.2-89.6-264.533-21.333-64-42.667-128-64-187.733-25.6-68.267-46.933-140.8-76.8-209.067-17.067-51.2-38.4-98.133-59.733-145.067-12.8-25.6-25.6-51.2-46.933-68.267-17.067-17.067-34.133-21.333-59.733-12.8-59.733 17.067-93.867 59.733-106.667 119.467-4.267 25.6-8.533 51.2-8.533 76.8 0 12.8 0 25.6 0 38.4s-8.533 21.333-17.067 25.6c-76.8 29.867-153.6 64-234.667 93.867-25.6 0-42.667 4.267-59.733 12.8zM554.667 550.4c-17.067 0-29.867-4.267-29.867-17.067-4.267-12.8 4.267-25.6 17.067-29.867 59.733-21.333 123.733-42.667 183.467-59.733 12.8-4.267 25.6 0 29.867 8.533 8.533 17.067 4.267 29.867-12.8 38.4-46.933 17.067-98.133 34.133-145.067 46.933-17.067 4.267-34.133 8.533-42.667 12.8zM477.867 375.467c-4.267 0-8.533 0-12.8-4.267-8.533-4.267-12.8-12.8-12.8-21.333 0-12.8 8.533-21.333 21.333-25.6 59.733-21.333 119.467-38.4 183.467-59.733 17.067-4.267 29.867 0 34.133 12.8s-4.267 25.6-17.067 29.867c-42.667 12.8-85.333 29.867-132.267 42.667-25.6 12.8-46.933 21.333-64 25.6zM806.4 631.467c21.333 0 29.867 4.267 34.133 21.333 4.267 8.533-8.533 21.333-21.333 25.6-21.333 4.267-42.667 12.8-68.267 17.067-38.4 12.8-76.8 21.333-119.467 34.133-17.067 4.267-34.133-8.533-29.867-25.6 0-12.8 12.8-17.067 25.6-21.333 42.667-12.8 89.6-25.6 132.267-38.4 17.067-4.267 34.133-8.533 46.933-12.8zM516.267 746.667c0 12.8-12.8 25.6-25.6 25.6-17.067 0-25.6-8.533-25.6-21.333s12.8-25.6 29.867-25.6c12.8-4.267 21.333 4.267 21.333 21.333zM426.667 541.867c12.8 0 25.6 8.533 25.6 21.333s-12.8 25.6-25.6 25.6c-17.067 0-29.867-8.533-25.6-21.333-4.267-12.8 4.267-25.6 25.6-25.6zM354.133 422.4c-17.067 0-25.6-8.533-25.6-25.6s12.8-25.6 29.867-25.6c12.8 0 25.6 8.533 25.6 21.333-4.267 17.067-17.067 29.867-29.867 29.867zM4.267 341.333c25.6-12.8 55.467-21.333 81.067-34.133 59.733-25.6 119.467-46.933 174.933-72.533 51.2-21.333 102.4-42.667 157.867-64 8.533-4.267 17.067-8.533 25.6-12.8s12.8-8.533 12.8-17.067c0-42.667 4.267-89.6 21.333-128 8.533-17.067 17.067-38.4 25.6-55.467-12.8 4.267-29.867 8.533-42.667 17.067-46.933 17.067-93.867 38.4-145.067 55.467-42.667 17.067-85.333 38.4-128 55.467-29.867 12.8-59.733 25.6-89.6 38.4s-55.467 38.4-72.533 64c-21.333 42.667-25.6 85.333-25.6 132.267 0 4.267 4.267 12.8 4.267 21.333z" />
<glyph unicode="&#xe93a;" glyph-name="traceability" d="M256 832c0-72.533-55.467-128-128-128s-128 55.467-128 128 55.467 128 128 128 128-55.467 128-128zM512 576c-72.533 0-128-55.467-128-128s55.467-128 128-128 128 55.467 128 128-55.467 128-128 128zM896 192c-72.533 0-128-55.467-128-128s55.467-128 128-128 128 55.467 128 128-55.467 128-128 128zM981.333 874.667h-580.267v85.333h-68.267v-256h68.267v85.333h537.6v-298.667h-226.133v-85.333h268.8c25.6 0 42.667 17.067 42.667 42.667v384c0 25.6-17.067 42.667-42.667 42.667zM563.2-64v85.333h-520.533c-25.6 0-42.667 17.067-42.667 42.667v384c0 25.6 17.067 42.667 42.667 42.667h268.8v-85.333h-226.133v-298.667h477.867v85.333l128-128-128-128z" />
<glyph unicode="&#xe93b;" glyph-name="transaction" d="M595.2 579.2c32 0 60.8-12.8 83.2-32l6.4-6.4 51.2 51.2-9.6 6.4c-35.2 35.2-83.2 51.2-134.4 51.2-83.2 0-156.8-51.2-188.8-128h-76.8v-60.8h64c0-3.2 0-9.6 0-12.8s0-9.6 0-12.8h-64v-60.8h80c32-80 105.6-128 188.8-128 51.2 0 99.2 19.2 134.4 51.2l9.6 6.4-51.2 48-6.4-6.4c-22.4-19.2-54.4-32-83.2-32-44.8 0-83.2 22.4-105.6 57.6h118.4v60.8h-140.8c0 6.4 0 9.6 0 12.8s0 9.6 0 12.8h140.8v60.8h-118.4c19.2 38.4 57.6 60.8 102.4 60.8zM553.6 912c-256 0-464-208-464-467.2h-86.4l134.4-208 140.8 208h-86.4c0 198.4 163.2 361.6 361.6 361.6s361.6-163.2 361.6-361.6-163.2-361.6-361.6-361.6c-99.2 0-188.8 41.6-252.8 108.8l-73.6-73.6c86.4-86.4 198.4-134.4 329.6-134.4 256 0 464 208 464 464s-208 464-467.2 464z" />
<glyph unicode="&#xe93c;" glyph-name="greenery" d="M860.8 99.2c0 38.4 3.2 73.6 0 105.6-3.2 41.6-25.6 70.4-64 80-60.8 12.8-121.6 28.8-182.4 41.6-140.8 28.8-278.4 67.2-396.8 150.4-80 60.8-153.6 128-214.4 208 0 3.2 0 3.2-3.2 9.6 28.8 12.8 54.4 22.4 83.2 35.2 134.4 60.8 275.2 92.8 422.4 89.6 153.6-3.2 288-54.4 400-163.2 70.4-67.2 102.4-153.6 115.2-249.6 16-108.8-12.8-204.8-57.6-300.8-16-32-16-32-51.2-22.4-16 3.2-28.8 9.6-41.6 12.8-6.4 3.2-9.6 3.2-9.6 3.2zM150.4 659.2c12.8-12.8 19.2-25.6 25.6-32 89.6-76.8 185.6-140.8 297.6-169.6 99.2-25.6 198.4-44.8 294.4-67.2 54.4-12.8 108.8-28.8 147.2-73.6 3.2-3.2 6.4-3.2 12.8-3.2 0 3.2 3.2 6.4 3.2 9.6 3.2 112-25.6 211.2-108.8 288-92.8 86.4-204.8 118.4-329.6 121.6-99.2-3.2-195.2-28.8-291.2-54.4-16-6.4-32-12.8-51.2-19.2z" />
<glyph unicode="&#xe93d;" glyph-name="volume" d="M1024 622.933c0-42.667-17.067-72.533-46.933-98.133s-72.533-38.4-123.733-38.4c-17.067 0-34.133 4.267-46.933 4.267v-554.667h-174.933v605.867c0 29.867-4.267 46.933-12.8 64-8.533 12.8-25.6 21.333-51.2 21.333-34.133 0-59.733-17.067-76.8-46.933v-644.267h-174.933v605.867c0 29.867-4.267 51.2-12.8 64-12.8 12.8-29.867 17.067-55.467 17.067-34.133 0-59.733-12.8-76.8-42.667v-644.267h-170.667v810.667h162.133l4.267-64c38.4 51.2 93.867 76.8 157.867 76.8 68.267 0 115.2-29.867 140.8-85.333 38.4 55.467 93.867 85.333 162.133 85.333 93.867 0 145.067-46.933 166.4-136.533v0c0-12.8 4.267-25.6 17.067-38.4 12.8-8.533 25.6-17.067 42.667-17.067s34.133 4.267 46.933 17.067 17.067 25.6 17.067 38.4c0 21.333-4.267 38.4-17.067 51.2-12.8 8.533-25.6 12.8-46.933 12.8h-51.2v81.067h51.2c38.4 0 59.733 21.333 59.733 59.733 0 17.067-4.267 25.6-12.8 38.4-12.8 8.533-25.6 12.8-46.933 12.8-12.8 0-25.6-4.267-38.4-12.8-8.533-8.533-17.067-17.067-17.067-29.867h-106.667c0 25.6 8.533 46.933 21.333 64s34.133 34.133 55.467 42.667 55.467 17.067 85.333 17.067c51.2 0 93.867-12.8 119.467-34.133 29.867-25.6 42.667-55.467 42.667-98.133 0-21.333-4.267-38.4-17.067-55.467s-29.867-29.867-51.2-42.667c25.6-8.533 42.667-21.333 59.733-38.4 8.533-21.333 17.067-42.667 17.067-68.267z" />
<glyph unicode="&#xe93e;" glyph-name="web" d="M827.733 533.333c-29.867 145.067-157.867 256-315.733 256-123.733 0-230.4-68.267-285.867-170.667-128-17.067-226.133-123.733-226.133-256 0-140.8 115.2-256 256-256h554.667c119.467 0 213.333 93.867 213.333 213.333 0 110.933-85.333 204.8-196.267 213.333z" />
<glyph unicode="&#xe93f;" glyph-name="control" d="M418.133 315.733l-128-123.733 256-256 469.333 469.333-128 128-341.333-341.333zM546.133 311.467l34.133 34.133h-68.267zM230.4 128l-59.733 64 153.6 153.6h-68.267v102.4h426.667l204.8 204.8 85.333-85.333v187.733c0 55.467-46.933 102.4-102.4 102.4h-213.333c-21.333 59.733-76.8 102.4-145.067 102.4s-123.733-42.667-145.067-102.4h-213.333c-55.467 0-102.4-46.933-102.4-102.4v-716.8c0-55.467 46.933-102.4 102.4-102.4h273.067l-196.267 192zM512 857.6c29.867 0 51.2-21.333 51.2-51.2s-21.333-51.2-51.2-51.2-51.2 21.333-51.2 51.2c0 29.867 21.333 51.2 51.2 51.2zM256 652.8h512v-102.4h-512v102.4zM665.6-64h204.8c55.467 0 102.4 46.933 102.4 102.4v204.8l-307.2-307.2z" />
<glyph unicode="&#xe940;" glyph-name="100" d="M640 38.4l-17.067-17.067h-213.333v153.6h-153.6v102.4h200.533l102.4 102.4h-302.933v102.4h405.333l102.4 102.4h-507.733v102.4h520.533v-89.6l72.533 72.533c17.067 17.067 42.667 29.867 68.267 29.867 4.267 0 8.533 0 8.533 0v157.867c0 55.467-46.933 102.4-102.4 102.4h-627.2c-55.467 0-102.4-46.933-102.4-102.4v-819.2c0-55.467 46.933-102.4 102.4-102.4h627.2c55.467 0 102.4 46.933 102.4 102.4v285.867l-285.867-285.867zM917.333 635.733c8.533 0 17.067-4.267 21.333-8.533l76.8-76.8c12.8-12.8 12.8-34.133 0-46.933l-64-64-119.467 119.467 64 64c4.267 8.533 12.8 12.8 21.333 12.8zM797.867 529.067l119.467-123.733-320-320h-123.733v119.467l324.267 324.267z" />
<glyph unicode="&#xe941;" glyph-name="item" d="M593.067 132.267v29.867l8.533 12.8c42.667-38.4 102.4-59.733 166.4-59.733 140.8 0 251.733 115.2 251.733 251.733 0 140.8-115.2 251.733-251.733 251.733-140.8 0-251.733-115.2-251.733-251.733 0-64 21.333-119.467 59.733-166.4l-12.8-8.533h-29.867l-192-196.267 59.733-59.733 192 196.267zM772.267 541.867c98.133 0 174.933-76.8 174.933-174.933s-76.8-174.933-174.933-174.933c-98.133 0-174.933 76.8-174.933 174.933-4.267 93.867 76.8 174.933 174.933 174.933zM460.8 110.933v0 4.267zM0 960h102.4v-849.067h-102.4v849.067zM1024 588.8v371.2h-102.4v-290.133c38.4-21.333 72.533-46.933 102.4-81.067zM456.533 230.4c-17.067 42.667-25.6 85.333-25.6 132.267 0 51.2 12.8 93.867 29.867 136.533v460.8h-153.6v-849.067h29.867l119.467 119.467zM204.8 960h51.2v-849.067h-51.2v849.067zM772.267 704c17.067 0 34.133 0 46.933-4.267v260.267h-51.2l4.267-256c-4.267 0-4.267 0 0 0zM665.6 686.933v273.067h-102.4c0 0 0-170.667 0-328.533 29.867 25.6 64 42.667 102.4 55.467z" />
<glyph unicode="&#xe942;" glyph-name="basket" d="M230.4 28.8l-19.2 326.4c0 19.2 12.8 35.2 32 38.4 19.2 0 35.2-12.8 38.4-32l16-323.2c0-19.2-12.8-35.2-32-38.4 0 0-3.2 0-3.2 0-16-3.2-32 12.8-32 28.8zM387.2 0c19.2 0 35.2 16 35.2 35.2v329.6c0 19.2-16 35.2-35.2 35.2s-35.2-16-35.2-35.2v-329.6c0-22.4 16-35.2 35.2-35.2zM512 3.2c19.2 0 35.2 16 35.2 35.2v326.4c0 19.2-16 35.2-35.2 35.2s-35.2-16-35.2-35.2v-326.4c0-19.2 16-35.2 35.2-35.2zM764.8 3.2c0 0 0 0 0 0 19.2 0 35.2 16 35.2 32 6.4 150.4 9.6 316.8 9.6 320 0 19.2-16 35.2-35.2 35.2s-35.2-16-35.2-35.2c0-6.4-6.4-230.4-9.6-316.8 0-16 16-35.2 35.2-35.2zM636.8 3.2c19.2 0 35.2 16 35.2 35.2v326.4c0 19.2-16 35.2-35.2 35.2s-35.2-16-35.2-35.2v-326.4c0-19.2 16-35.2 35.2-35.2zM1024 537.6v-80c0-19.2-16-35.2-35.2-35.2h-28.8l-64-470.4c-3.2-16-16-28.8-35.2-28.8h-697.6c-16 0-32 12.8-35.2 28.8l-64 473.6h-28.8c-19.2 0-35.2 16-35.2 35.2v80c0 19.2 16 35.2 35.2 35.2h172.8l140.8 291.2c-3.2 9.6-6.4 22.4-6.4 35.2 6.4 38.4 41.6 67.2 80 60.8s67.2-41.6 60.8-80c-6.4-38.4-41.6-67.2-80-60.8 0 0 0 0 0 0l-112-249.6h438.4l-112 249.6c0 0 0 0 0 0-38.4-6.4-73.6 22.4-80 60.8s22.4 73.6 60.8 80c38.4 6.4 73.6-22.4 80-60.8 3.2-12.8 0-25.6-6.4-35.2l140.8-291.2h172.8c22.4-3.2 38.4-19.2 38.4-38.4zM886.4 425.6h-748.8l54.4-435.2h640l54.4 435.2z" />
<glyph unicode="&#xe943;" glyph-name="worker" d="M297.6 505.6c-44.8 0-80-35.2-80-83.2s35.2-83.2 80-83.2 80 35.2 80 83.2-35.2 83.2-80 83.2zM297.6 320c-54.4 0-163.2-28.8-163.2-83.2v-60.8h326.4v60.8c0 54.4-108.8 83.2-163.2 83.2zM880 444.8h-316.8c-16 0-28.8 12.8-28.8 28.8s12.8 28.8 28.8 28.8h316.8c16 0 25.6-12.8 25.6-28.8s-12.8-28.8-25.6-28.8zM880 176h-316.8c-16 0-28.8 12.8-28.8 25.6s12.8 25.6 28.8 25.6h316.8c16 0 25.6-12.8 25.6-25.6s-12.8-25.6-25.6-25.6zM880 310.4h-316.8c-16 0-28.8 12.8-28.8 25.6s12.8 25.6 28.8 25.6h316.8c16 0 25.6-12.8 25.6-25.6s-12.8-25.6-25.6-25.6zM624 912v-236.8c0-25.6-22.4-48-48-48h-131.2c-25.6 0-48 22.4-48 48v236.8c0 25.6 22.4 48 48 48h131.2c28.8 0 48-22.4 48-48zM1024 665.6v-640c0-51.2-41.6-89.6-89.6-89.6h-844.8c-48 0-89.6 41.6-89.6 89.6v640c0 51.2 41.6 89.6 89.6 89.6h275.2v-54.4h-275.2c-19.2 0-35.2-16-35.2-35.2v-640c0-19.2 16-35.2 35.2-35.2h841.6c19.2 0 35.2 16 35.2 35.2v640c0 19.2-16 35.2-35.2 35.2h-275.2v54.4h275.2c51.2 0 92.8-38.4 92.8-89.6z" />
<glyph unicode="&#xe944;" glyph-name="columnadd" d="M0 960h256v-256h-256v256zM0 192h256v-256h-256v256zM0 576h256v-256h-256v256zM913.067 512v-132.267h-204.8v-204.8h-136.533v204.8h-204.8v132.267h204.8v204.8h136.533v-204.8z" />
<glyph unicode="&#xe945;" glyph-name="linesplit" d="M686.933 217.6h-119.467l-268.8 230.4 268.8 230.4h119.467v-153.6l337.067 196.267-337.067 238.933v-153.6h-153.6l-290.133-251.733h-243.2v-213.333h243.2l290.133-251.733h153.6v-153.6l337.067 238.933-337.067 196.267z" />
<glyph unicode="&#xe946;" glyph-name="linedelete" d="M354.133 192l-98.133 98.133 157.867 153.6-157.867 157.867 98.133 102.4 157.867-157.867 157.867 153.6 98.133-98.133-157.867-157.867 157.867-153.6-98.133-98.133-157.867 157.867-157.867-157.867zM780.8 507.733l-64-64 59.733-55.467h247.467v119.467h-243.2zM307.2 443.733l-64 64h-243.2v-119.467h251.733l55.467 55.467z" />
<glyph unicode="&#xe947;" glyph-name="exit" d="M405.333 243.2l81.067-81.067 281.6 285.867-285.867 285.867-76.8-81.067 145.067-149.333h-550.4v-115.2h550.4l-145.067-145.067zM908.8 960h-793.6c-64 0-115.2-51.2-115.2-115.2v-226.133h115.2v226.133h797.867v-797.867h-797.867v230.4h-115.2v-226.133c0-64 51.2-115.2 115.2-115.2h797.867c64 0 115.2 51.2 115.2 115.2v793.6c-4.267 64-55.467 115.2-119.467 115.2z" />
<glyph unicode="&#xe948;" glyph-name="apps" d="M0 704h256v256h-256v-256zM384-64h256v256h-256v-256zM0-64h256v256h-256v-256zM0 320h256v256h-256v-256zM384 320h256v256h-256v-256zM768 960v-256h256v256h-256zM384 704h256v256h-256v-256zM768 320h256v256h-256v-256zM768-64h256v256h-256v-256z" />
<glyph unicode="&#xe949;" glyph-name="info" d="M512 960c-281.6 0-512-230.4-512-512s230.4-512 512-512 512 230.4 512 512-230.4 512-512 512zM563.2 192h-102.4v307.2h102.4v-307.2zM563.2 601.6h-102.4v102.4h102.4v-102.4z" />
<glyph unicode="&#xe94a;" glyph-name="delivery" d="M789.333 264.533c-55.467 0-102.4-46.933-102.4-102.4s46.933-102.4 102.4-102.4 102.4 46.933 102.4 102.4c0 59.733-46.933 102.4-102.4 102.4zM789.333 110.933c-29.867 0-51.2 21.333-51.2 51.2s21.333 51.2 51.2 51.2 51.2-21.333 51.2-51.2c0-25.6-25.6-51.2-51.2-51.2zM251.733 264.533c-55.467 0-102.4-46.933-102.4-102.4s46.933-102.4 102.4-102.4c55.467 0 102.4 46.933 102.4 102.4 0 59.733-46.933 102.4-102.4 102.4zM251.733 110.933c-29.867 0-51.2 21.333-51.2 51.2s21.333 51.2 51.2 51.2c29.867 0 51.2-21.333 51.2-51.2 0-25.6-25.6-51.2-51.2-51.2zM1006.933 537.6l-196.267 192c-12.8 12.8-29.867 17.067-46.933 17.067h-98.133v38.4c0 25.6-21.333 51.2-51.2 51.2h-563.2c-29.867 0-51.2-21.333-51.2-51.2v-554.667c0-29.867 25.6-51.2 51.2-51.2h68.267c8.533 64 64 115.2 132.267 115.2 64 0 123.733-51.2 132.267-115.2h268.8c8.533 64 64 115.2 132.267 115.2s128-51.2 136.533-115.2h51.2c29.867 0 51.2 25.6 51.2 51.2v260.267c0 17.067-8.533 34.133-17.067 46.933zM725.333 682.667c0 4.267 4.267 8.533 8.533 8.533h34.133c0 0 4.267 0 4.267-4.267l153.6-145.067c4.267 0 0-12.8-4.267-12.8h-187.733c-8.533 0-8.533 4.267-8.533 8.533v145.067zM311.467 597.333c0 46.933 29.867 85.333 59.733 93.867 4.267 0 4.267 0 8.533 0l98.133 12.8v-51.2c0-46.933-29.867-85.333-59.733-93.867-4.267 0-4.267 0-8.533 0l-98.133-17.067v55.467zM311.467 516.267l46.933 8.533c17.067 4.267 29.867-17.067 29.867-38.4l4.267-29.867-51.2-4.267c-17.067-4.267-29.867 12.8-29.867 38.4v25.6zM149.333 597.333v51.2l85.333 12.8c34.133 4.267 55.467-25.6 55.467-72.533v-51.2l-85.333-12.8c-34.133 0-59.733 29.867-55.467 72.533zM285.867 512v-38.4c0-34.133-21.333-64-42.667-68.267h-4.267l-72.533-8.533v38.4c0 34.133 21.333 64 42.667 68.267h4.267l72.533 8.533z" />
<glyph unicode="&#xe94b;" glyph-name="linesprepaired" d="M870.4 857.6h-213.333c-21.333 59.733-76.8 102.4-145.067 102.4s-123.733-42.667-145.067-102.4h-213.333c-55.467 0-102.4-46.933-102.4-102.4v-716.8c0-55.467 46.933-102.4 102.4-102.4h716.8c55.467 0 102.4 46.933 102.4 102.4v716.8c0 55.467-46.933 102.4-102.4 102.4zM512 857.6c29.867 0 51.2-21.333 51.2-51.2s-21.333-51.2-51.2-51.2-51.2 21.333-51.2 51.2 21.333 51.2 51.2 51.2zM614.4 140.8h-358.4v102.4h358.4v-102.4zM768 345.6h-512v102.4h512v-102.4zM768 550.4h-512v102.4h512v-102.4z" />
<glyph unicode="&#xe94c;" glyph-name="revision" d="M358.4 140.8h-102.4v102.4h81.067c0 0 0 4.267 0 4.267 0 34.133 8.533 68.267 21.333 98.133h-102.4v102.4h170.667c51.2 51.2 123.733 85.333 200.533 102.4h-371.2v102.4h512v-93.867c76.8-8.533 149.333-34.133 204.8-72.533v268.8c0 55.467-46.933 102.4-102.4 102.4h-213.333c-21.333 59.733-76.8 102.4-145.067 102.4s-123.733-42.667-145.067-102.4h-213.333c-55.467 0-102.4-46.933-102.4-102.4v-716.8c0-55.467 46.933-102.4 102.4-102.4h546.133c-157.867 8.533-290.133 89.6-341.333 204.8zM512 857.6c29.867 0 51.2-21.333 51.2-51.2s-21.333-51.2-51.2-51.2-51.2 21.333-51.2 51.2c0 29.867 21.333 51.2 51.2 51.2zM721.067 452.267c-136.533 0-251.733-85.333-302.933-204.8 46.933-119.467 162.133-204.8 302.933-204.8s251.733 85.333 302.933 204.8c-46.933 119.467-162.133 204.8-302.933 204.8zM721.067 110.933c-76.8 0-136.533 59.733-136.533 136.533s64 136.533 136.533 136.533 136.533-64 136.533-136.533-59.733-136.533-136.533-136.533zM721.067 328.533c-46.933 0-81.067-38.4-81.067-81.067s38.4-81.067 81.067-81.067c46.933 0 81.067 38.4 81.067 81.067s-34.133 81.067-81.067 81.067z" />
<glyph unicode="&#xe94d;" glyph-name="services" d="M951.467 217.6c0 8.533 0 21.333 0 29.867s0 21.333-4.267 29.867l64 51.2c4.267 4.267 8.533 12.8 4.267 21.333l-64 106.667c-4.267 8.533-12.8 8.533-17.067 8.533l-76.8-29.867c-17.067 12.8-34.133 21.333-51.2 29.867l-12.8 81.067c0 8.533-8.533 12.8-17.067 12.8h-123.733c-8.533 0-12.8-4.267-17.067-12.8l-12.8-81.067c-17.067-8.533-38.4-17.067-51.2-29.867l-76.8 29.867c-8.533 4.267-17.067 0-17.067-8.533l-64-106.667c-4.267-8.533-4.267-17.067 4.267-21.333l64-51.2c0-8.533-4.267-21.333-4.267-29.867s0-21.333 4.267-29.867l-55.467-51.2c-4.267-4.267-8.533-12.8-4.267-21.333l64-106.667c4.267-8.533 12.8-8.533 17.067-8.533l76.8 29.867c17.067-12.8 34.133-21.333 51.2-29.867l12.8-81.067c0-8.533 8.533-12.8 17.067-12.8h123.733c8.533 0 12.8 4.267 17.067 12.8l12.8 81.067c17.067 8.533 38.4 17.067 51.2 29.867l76.8-29.867c8.533-4.267 17.067 0 17.067 8.533l64 106.667c4.267 8.533 4.267 17.067-4.267 21.333 0 0-68.267 51.2-68.267 51.2zM721.067 132.267c-64 0-115.2 51.2-115.2 115.2s51.2 115.2 115.2 115.2 115.2-51.2 115.2-115.2c0-64-51.2-115.2-115.2-115.2zM345.6 174.933h-89.6v102.4h81.067c4.267 34.133 8.533 68.267 21.333 102.4h-102.4v102.4h162.133c34.133 42.667 72.533 76.8 119.467 102.4h-281.6v102.4h520.533v-59.733c51.2-8.533 102.4-25.6 145.067-51.2v281.6c0 55.467-46.933 102.4-102.4 102.4h-622.933c-55.467 0-102.4-46.933-102.4-102.4v-819.2c0-55.467 46.933-102.4 102.4-102.4h302.933c-81.067 55.467-136.533 140.8-153.6 238.933z" />
<glyph unicode="&#xe94e;" glyph-name="pets" d="M1024 571.733c-4.267 46.933-25.6 81.067-55.467 110.933-34.133 29.867-72.533 42.667-110.933 38.4 0 0-4.267 0-4.267 0 0 8.533 0 17.067-4.267 29.867-8.533 51.2-29.867 98.133-68.267 128-25.6 21.333-51.2 34.133-72.533 38.4-29.867 4.267-59.733 0-76.8-4.267-42.667-8.533-81.067-34.133-110.933-72.533-21.333 25.6-42.667 46.933-68.267 64-64 38.4-140.8 29.867-196.267-21.333-25.6-21.333-42.667-46.933-51.2-81.067-12.8-29.867-17.067-59.733-17.067-93.867-8.533 0-17.067 0-25.6 0-42.667 0-81.067-17.067-110.933-46.933-29.867-34.133-42.667-76.8-46.933-98.133-4.267-12.8-4.267-25.6-4.267-42.667 4.267-55.467 25.6-110.933 59.733-157.867 29.867-38.4 68.267-64 110.933-76.8-4.267-12.8-8.533-21.333-8.533-34.133 0-4.267-4.267-8.533-4.267-17.067-12.8-42.667-25.6-98.133 4.267-162.133 29.867-59.733 89.6-102.4 157.867-106.667 4.267 0 12.8 0 17.067 0 46.933 0 85.333 17.067 119.467 29.867 4.267 0 8.533 4.267 12.8 4.267 17.067 4.267 34.133 12.8 51.2 12.8 8.533 0 17.067-4.267 34.133-12.8s42.667-21.333 68.267-25.6c29.867-4.267 64-4.267 93.867 0 38.4 8.533 68.267 21.333 89.6 38.4 59.733 46.933 68.267 128 51.2 187.733-8.533 25.6-21.333 55.467-34.133 85.333 29.867 4.267 55.467 12.8 76.8 29.867 81.067 51.2 110.933 128 119.467 187.733 4.267 12.8 4.267 51.2 4.267 68.267zM541.867 674.133c4.267 42.667 21.333 81.067 42.667 115.2 34.133 42.667 93.867 68.267 136.533 25.6 0 0 0 0 0 0 21.333-21.333 34.133-51.2 34.133-81.067 4.267-38.4 0-72.533-17.067-106.667-17.067-38.4-38.4-68.267-76.8-89.6-46.933-25.6-102.4-8.533-119.467 42.667-4.267 29.867-4.267 68.267 0 93.867zM277.333 776.533c8.533 17.067 17.067 34.133 34.133 46.933 29.867 29.867 64 34.133 102.4 8.533 51.2-29.867 81.067-85.333 85.333-145.067 4.267-51.2-12.8-115.2-64-145.067-17.067-4.267-34.133-8.533-51.2-4.267-21.333 4.267-38.4 17.067-51.2 29.867-55.467 46.933-76.8 140.8-55.467 209.067zM123.733 413.867c-34.133 46.933-55.467 110.933-34.133 170.667 12.8 25.6 34.133 42.667 64 46.933 25.6 4.267 51.2-8.533 72.533-25.6 8.533-4.267 12.8-12.8 17.067-17.067 17.067-21.333 29.867-46.933 34.133-72.533 8.533-29.867 12.8-59.733 8.533-85.333-4.267-34.133-29.867-64-64-68.267-38.4-4.267-76.8 21.333-98.133 51.2zM755.2 76.8c-29.867-25.6-81.067-29.867-115.2-21.333-42.667 8.533-72.533 38.4-115.2 42.667-29.867 0-55.467-8.533-85.333-17.067-38.4-12.8-76.8-34.133-115.2-29.867-25.6 0-55.467 12.8-72.533 34.133-42.667 42.667-29.867 110.933-8.533 162.133 17.067 55.467 55.467 102.4 98.133 140.8 17.067 17.067 38.4 34.133 64 42.667 25.6 12.8 55.467 17.067 85.333 17.067 34.133 0 68.267 0 98.133-12.8s55.467-29.867 72.533-55.467c21.333-25.6 42.667-51.2 59.733-81.067 17.067-25.6 34.133-55.467 46.933-85.333 17.067-34.133 21.333-76.8 4.267-110.933 0-12.8-8.533-21.333-17.067-25.6zM942.933 516.267c-8.533-55.467-34.133-106.667-81.067-136.533-17.067-12.8-38.4-17.067-64-17.067-42.667 0-72.533 34.133-81.067 72.533-17.067 76.8 59.733 200.533 140.8 204.8 21.333 0 38.4-4.267 51.2-21.333 21.333-17.067 29.867-42.667 34.133-68.267 0 4.267 4.267-8.533 0-34.133z" />
<glyph unicode="&#xe94f;" glyph-name="calendar" d="M883.2 866.133h-46.933v93.867h-93.867v-93.867h-465.067v93.867h-89.6v-93.867h-46.933c-51.2 0-93.867-42.667-93.867-93.867v-746.667c0-51.2 42.667-93.867 93.867-93.867h746.667c51.2 0 93.867 42.667 93.867 93.867v746.667c-4.267 51.2-46.933 93.867-98.133 93.867zM883.2 29.867h-742.4v605.867h746.667v-605.867z" />
<glyph unicode="&#xe950;" glyph-name="pbx" d="M512 960c-230.4 0-418.133-187.733-418.133-418.133v-324.267c0-76.8 64-140.8 140.8-140.8h140.8v371.2h-187.733v93.867c0 179.2 145.067 324.267 324.267 324.267s324.267-145.067 324.267-324.267v-93.867h-187.733v-371.2h187.733v-46.933h-324.267v-93.867h277.333c76.8 0 140.8 64 140.8 140.8v465.067c0 230.4-187.733 418.133-418.133 418.133z" />
<glyph unicode="&#xe951;" glyph-name="buscaman" d="M774.4 67.2c0-19.2-16-38.4-38.4-38.4s-38.4 16-38.4 38.4 16 38.4 38.4 38.4 38.4-19.2 38.4-38.4zM262.4 102.4c-19.2 0-38.4-16-38.4-38.4s16-38.4 38.4-38.4c19.2 0 38.4 16 38.4 38.4s-16 38.4-38.4 38.4zM809.6 176c0 0 0 0 0 0 35.2-22.4 57.6-64 57.6-108.8 0-70.4-57.6-131.2-131.2-131.2-70.4 0-131.2 57.6-131.2 131.2 0 0 0-3.2 0-3.2-64-3.2-137.6-9.6-214.4-12.8 0 0 0 0 0 0-6.4-64-64-115.2-128-115.2-70.4 0-131.2 57.6-131.2 131.2 0 54.4 32 99.2 80 121.6 0 0 0 0 0 0-3.2 89.6 0 198.4 16 275.2 0 0 73.6 73.6 243.2 86.4 6.4-16 19.2-28.8 38.4-28.8s32 12.8 38.4 28.8c12.8 0 25.6-3.2 38.4-3.2v-249.6c0 0 48-60.8 220.8-67.2zM345.6 67.2c0 44.8-35.2 80-80 80s-80-35.2-80-80c0-44.8 35.2-80 80-80 44.8-3.2 80 35.2 80 80zM416 454.4c0 9.6-6.4 16-16 16s-16-6.4-16-16c3.2-48-6.4-80-28.8-99.2-28.8-25.6-73.6-12.8-73.6-12.8-9.6 3.2-16-3.2-19.2-12.8s3.2-16 12.8-19.2c0 0 12.8-3.2 32-3.2s48 3.2 70.4 22.4c25.6 25.6 38.4 67.2 38.4 124.8zM819.2 67.2c0 44.8-35.2 80-80 80s-80-35.2-80-80c0-44.8 35.2-80 80-80 41.6-3.2 80 35.2 80 80zM886.4 806.4c-118.4 102.4-243.2 156.8-377.6 153.6-214.4-3.2-368-150.4-374.4-156.8-12.8-12.8-12.8-28.8 0-41.6s28.8-12.8 41.6 0c0 0 140.8 137.6 332.8 137.6 115.2 0 230.4-44.8 336-140.8 6.4-6.4 12.8-6.4 19.2-6.4 9.6 0 16 3.2 22.4 9.6 12.8 12.8 12.8 32 0 44.8zM806.4 720c-92.8 83.2-192 121.6-297.6 121.6-169.6-3.2-291.2-118.4-294.4-121.6-12.8-12.8-12.8-28.8 0-41.6s28.8-12.8 41.6 0c0 0 108.8 102.4 252.8 105.6 0 0 3.2 0 3.2 0 86.4 0 172.8-35.2 252.8-105.6 6.4-6.4 12.8-6.4 19.2-6.4 9.6 0 16 3.2 22.4 9.6 12.8 9.6 12.8 28.8 0 38.4zM732.8 636.8c-70.4 60.8-144 92.8-220.8 89.6-128 0-217.6-89.6-220.8-92.8-12.8-12.8-12.8-28.8 0-41.6s28.8-12.8 41.6 0c0 0 76.8 73.6 179.2 73.6 64 0 124.8-25.6 182.4-76.8 6.4-6.4 12.8-6.4 19.2-6.4 9.6 0 16 3.2 22.4 9.6 9.6 12.8 9.6 32-3.2 44.8zM512 585.6c-16 0-28.8-12.8-28.8-28.8s12.8-28.8 28.8-28.8c16 0 28.8 12.8 28.8 28.8-3.2 16-16 28.8-28.8 28.8z" />
<glyph unicode="&#xe952;" glyph-name="catalog" d="M60.8 604.8h64v-310.4h-64v310.4zM979.2 960h-873.6c-25.6 0-44.8-19.2-44.8-44.8v-176h64v156.8h835.2v-896h-835.2v156.8h-64v-176c0-25.6 19.2-44.8 44.8-44.8h873.6c25.6 0 44.8 19.2 44.8 44.8v934.4c0 25.6-19.2 44.8-44.8 44.8zM230.4 688c0 9.6-9.6 19.2-19.2 19.2h-192c-9.6 0-19.2-9.6-19.2-19.2v-35.2c0-9.6 9.6-19.2 19.2-19.2h195.2c9.6 0 19.2 9.6 19.2 19.2v35.2zM230.4 240c0 9.6-9.6 19.2-19.2 19.2h-192c-9.6 0-19.2-9.6-19.2-19.2v-35.2c0-9.6 9.6-19.2 19.2-19.2h195.2c9.6 0 19.2 9.6 19.2 19.2v35.2zM876.8 742.4h-275.2v-275.2h275.2v275.2zM876.8 428.8h-275.2v-275.2h275.2v275.2zM528 710.4h-211.2v-211.2h211.2v211.2zM560 742.4v-275.2h-275.2v275.2h275.2zM560 428.8h-275.2v-275.2h275.2v275.2z" />
<glyph unicode="&#xe953;" glyph-name="unavailable" d="M469.333 524.8v366.933h-136.533v-499.2zM290.133 345.6v546.133h-42.667v-588.8zM776.533 832v59.733h-42.667v-102.4zM644.267 699.733v192h-89.6c0 0 0-145.067 0-277.333l89.6 85.333zM866.133 682.667v-42.667c34.133-17.067 64-42.667 89.6-68.267v200.533l-89.6-89.6zM776.533 593.067l-64-64c8.533 0 17.067 4.267 25.6 4.267 85.333 0 149.333-68.267 149.333-149.333 0-85.333-68.267-149.333-149.333-149.333s-149.333 68.267-149.333 149.333c0 8.533 0 17.067 0 25.6l-68.267-68.267c8.533-38.4 21.333-72.533 46.933-102.4l-12.8-12.8h-25.6l-166.4-170.667 51.2-51.2 166.4 170.667v25.6l8.533 12.8c38.4-34.133 89.6-51.2 145.067-51.2 123.733 0 217.6 98.133 217.6 217.6 0 106.667-76.8 192-174.933 213.333zM157.867 213.333v678.4h-89.6v-733.867h29.867zM460.8 273.067l-119.467-115.2h21.333l102.4 102.4c-4.267 4.267-4.267 8.533-4.267 12.8zM964.267 960l59.733-59.733-964.267-964.267-59.733 59.733 964.267 964.267z" />
<glyph unicode="&#xe954;" glyph-name="wand" d="M829.649 565.029l-18.808-50.155-50.155-18.808 50.155-18.808 18.808-50.155 18.808 50.155 50.155 18.808-50.155 18.808-18.808 50.155zM624.849 870.139l-35.527 89.861-33.437-89.861-89.861-35.527 89.861-33.437 33.437-89.861 33.437 89.861 91.951 33.437-89.861 35.527zM969.665 819.984l-20.898 54.335-20.898-54.335-52.245-20.898 52.245-20.898 20.898-52.245 20.898 52.245 54.335 20.898-54.335 20.898zM783.673 648.62l-71.053 71.053c-4.18 4.18-8.359 4.18-12.539 4.18s-8.359-2.090-12.539-4.18l-681.273-681.273c0 0 0 0 0 0v0c-6.269-6.269-6.269-18.808 0-25.078l71.053-71.053c6.269-6.269 16.718-6.269 22.988 0v0c0 0 0 0 0 0l683.363 683.363c6.269 6.269 6.269 16.718 0 22.988zM626.939 506.514l-56.424 56.424 129.567 129.567 56.424-56.424-129.567-129.567z" />
<glyph unicode="&#xe955;" glyph-name="basketadd" d="M515.2 512c-16 0-28.8-12.8-28.8-28.8v-83.2c16 22.4 35.2 41.6 57.6 60.8v22.4c0 16-12.8 28.8-28.8 28.8zM416 185.6h-259.2l-44.8 348.8h566.4c32 9.6 64 16 99.2 16 16 0 32 0 48-3.2 3.2 3.2 6.4 9.6 6.4 16v64c0 16-12.8 28.8-32 32h-140.8l-115.2 227.2c6.4 6.4 6.4 19.2 6.4 28.8-6.4 32-35.2 54.4-64 48-32-6.4-54.4-32-48-64s35.2-54.4 64-48l89.6-198.4h-355.2l89.6 198.4c32-6.4 60.8 19.2 64 48s-19.2 57.6-48 64c-32 6.4-60.8-19.2-64-48 0-9.6 3.2-19.2 6.4-28.8l-115.2-233.6h-140.8c-16 0-28.8-12.8-28.8-28.8v-64c0-16 12.8-28.8 28.8-28.8h22.4l51.2-377.6c3.2-12.8 16-22.4 28.8-22.4h288c-3.2 16-3.2 35.2-3.2 54.4zM416 512c-16 0-28.8-12.8-28.8-28.8v-259.2c0-16 12.8-28.8 28.8-28.8 0 0 0 0 0 0 0 44.8 9.6 89.6 28.8 131.2v160c0 12.8-12.8 25.6-28.8 25.6zM198.4 508.8c-16-3.2-25.6-16-25.6-32l16-262.4c0-12.8 12.8-25.6 25.6-22.4h3.2c16 3.2 25.6 16 25.6 32l-12.8 259.2c-3.2 12.8-19.2 25.6-32 25.6zM284.8 483.2v-262.4c0-19.2 12.8-28.8 28.8-28.8s28.8 12.8 28.8 28.8v262.4c0 16-12.8 28.8-28.8 28.8s-28.8-12.8-28.8-28.8zM1024 243.2v-121.6h-185.6v-185.6h-121.6v185.6h-185.6v121.6h185.6v185.6h121.6v-185.6z" />
<glyph unicode="&#xe956;" glyph-name="deliveryprices" d="M789.333 264.533c-55.467 0-102.4-46.933-102.4-102.4s46.933-102.4 102.4-102.4 102.4 46.933 102.4 102.4c0 59.733-46.933 102.4-102.4 102.4zM789.333 110.933c-29.867 0-51.2 21.333-51.2 51.2s21.333 51.2 51.2 51.2 51.2-21.333 51.2-51.2c0-25.6-25.6-51.2-51.2-51.2zM251.733 264.533c-55.467 0-102.4-46.933-102.4-102.4s46.933-102.4 102.4-102.4 102.4 46.933 102.4 102.4c0 59.733-46.933 102.4-102.4 102.4zM251.733 110.933c-29.867 0-51.2 21.333-51.2 51.2s21.333 51.2 51.2 51.2 51.2-21.333 51.2-51.2c0-25.6-25.6-51.2-51.2-51.2zM1006.933 537.6l-196.267 192c-12.8 12.8-29.867 17.067-46.933 17.067h-98.133v38.4c0 25.6-21.333 51.2-51.2 51.2h-563.2c-29.867 0-51.2-21.333-51.2-51.2v-554.667c0-29.867 25.6-51.2 51.2-51.2h68.267c8.533 64 64 115.2 132.267 115.2 64 0 123.733-51.2 132.267-115.2h268.8c8.533 64 64 115.2 132.267 115.2s128-51.2 136.533-115.2h51.2c29.867 0 51.2 25.6 51.2 51.2v260.267c0 17.067-8.533 34.133-17.067 46.933zM392.533 605.867v-38.4h-170.667c0-8.533 0-12.8 0-17.067s0-12.8 0-17.067h170.667v-42.667h-157.867c12.8-25.6 25.6-42.667 51.2-59.733 21.333-12.8 46.933-21.333 76.8-21.333 42.667 0 76.8 17.067 102.4 46.933l46.933-42.667c-17.067-21.333-38.4-38.4-68.267-46.933-25.6-12.8-55.467-17.067-89.6-17.067s-64 4.267-89.6 17.067c-25.6 12.8-51.2 29.867-68.267 51.2s-29.867 42.667-38.4 72.533h-64v38.4h55.467c0 4.267 0 8.533 0 17.067s0 12.8 0 17.067h-55.467v42.667h64c8.533 29.867 21.333 51.2 38.4 76.8s42.667 38.4 68.267 51.2c29.867 8.533 59.733 12.8 93.867 12.8 29.867 0 59.733-4.267 89.6-17.067 25.6-8.533 46.933-25.6 64-46.933l-46.933-42.667c-29.867 29.867-64 46.933-102.4 46.933-29.867 0-55.467-8.533-76.8-21.333-25.6-17.067-42.667-34.133-51.2-59.733h157.867zM921.6 529.067h-187.733c-8.533 0-8.533 4.267-8.533 8.533v145.067c0 4.267 4.267 8.533 8.533 8.533h34.133c0 0 4.267 0 4.267-4.267l153.6-145.067c4.267 0 0-12.8-4.267-12.8z" />
<glyph unicode="&#xe957;" glyph-name="fruit" d="M870.4 814.933c-204.8 196.267-529.067 192-725.333-8.533-196.267-204.8-192-529.067 8.533-725.333s524.8-192 725.333 12.8c196.267 200.533 192 524.8-8.533 721.067zM840.533 128c-174.933-179.2-465.067-183.467-644.267-8.533s-179.2 465.067-4.267 644.267 465.067 183.467 644.267 8.533c179.2-174.933 179.2-460.8 4.267-644.267zM145.067 366.933c-38.4 51.2-4.267 149.333 8.533 162.133 29.867 17.067 157.867-25.6 183.467-38.4s98.133-29.867 98.133-55.467c0-29.867-64-46.933-119.467-55.467-59.733-12.8-153.6-38.4-170.667-12.8zM256 170.667c-59.733 17.067-89.6 102.4-85.333 119.467 12.8 29.867 136.533 68.267 162.133 76.8 25.6 4.267 93.867 34.133 106.667 12.8 17.067-25.6-29.867-64-64-106.667-38.4-46.933-89.6-115.2-119.467-102.4zM405.333 622.933c-25.6 51.2-72.533 128-51.2 153.6 38.4 51.2 132.267 51.2 145.067 38.4 25.6-21.333 17.067-157.867 12.8-183.467s0-102.4-25.6-106.667c-29.867-8.533-55.467 46.933-81.067 98.133zM537.6 648.533c8.533 59.733 8.533 149.333 42.667 162.133 59.733 21.333 140.8-29.867 149.333-51.2 8.533-34.133-72.533-145.067-93.867-166.4s-59.733-85.333-85.333-76.8c-29.867 12.8-17.067 76.8-12.8 132.267zM494.933 217.6c-8.533-51.2-12.8-128-38.4-136.533-51.2-17.067-119.467 25.6-123.733 42.667-8.533 29.867 68.267 123.733 85.333 140.8s51.2 72.533 72.533 64c21.333-4.267 8.533-59.733 4.267-110.933zM320 516.267c-55.467 25.6-136.533 51.2-136.533 85.333 0 64 68.267 123.733 85.333 123.733 34.133 0 110.933-110.933 128-132.267 12.8-25.6 64-76.8 46.933-98.133-17.067-29.867-72.533 0-123.733 21.333zM887.467 482.133c38.4-51.2 8.533-149.333-17.067-162.133-29.867-17.067-145.067 38.4-170.667 46.933-25.6 12.8-98.133 29.867-98.133 55.467 0 29.867 64 38.4 123.733 51.2 55.467 8.533 140.8 34.133 162.133 8.533zM785.067 686.933c55.467-17.067 89.6-98.133 85.333-115.2-8.533-29.867-132.267-64-157.867-72.533-25.6-4.267-89.6-29.867-102.4-12.8-17.067 25.6 25.6 64 64 102.4 29.867 42.667 76.8 106.667 110.933 98.133zM725.333 328.533c51.2-17.067 102.4-46.933 102.4-76.8-4.267-51.2-64-115.2-98.133-115.2-29.867 0-89.6 106.667-102.4 132.267-12.8 21.333-51.2 76.8-34.133 98.133s76.8-17.067 132.267-38.4zM610.133 238.933c21.333-46.933 59.733-110.933 38.4-132.267-34.133-42.667-115.2-42.667-128-29.867-21.333 17.067-8.533 136.533-4.267 157.867 4.267 25.6 4.267 89.6 25.6 93.867 29.867 4.267 46.933-46.933 68.267-89.6z" />
<glyph unicode="&#xe958;" glyph-name="deletedTicket" horiz-adv-x="900" d="M96.823 84.328h694.333v640.777c0 0-2.019 234.895-350.243 234.895s-344.090-234.895-344.090-234.895v-640.777zM227.684 652.223h171.244v152.494h102.496v-152.494h171.276v-102.496h-171.276v-357.519h-102.496v357.519h-171.244v102.496zM0 59.649v-123.649h900.415v123.649h-900.415z" />
<glyph unicode="&#xe959;" glyph-name="entry" d="M0 328.882l392.882-392.882 265.404 265.404-100.31 100.31-102.4-100.31v303.020h303.020l-100.31-102.4 100.31-100.31 265.404 265.404-392.882 392.882z" />
<glyph unicode="&#xe95a;" glyph-name="thermometer" d="M641.567 326.792v35.527h64.784v25.078h-64.784v119.118h64.784v25.078h-64.784v119.118h64.784v25.078h-64.784v121.208h64.784v25.078h-64.784v8.359c0 71.053-58.514 129.567-129.567 129.567s-129.567-58.514-129.567-129.567v-503.641c-54.335-39.706-87.771-104.49-87.771-173.453 0-119.118 96.131-217.339 217.339-217.339 119.118 0 217.339 96.131 217.339 217.339 0 66.873-33.437 131.657-87.771 173.453zM512-28.473c-100.31 0-179.722 81.502-179.722 179.722 0 64.784 33.437 123.298 87.771 154.645v524.539c0 50.155 41.796 91.951 91.951 91.951s91.951-41.796 91.951-91.951v-522.449c54.335-31.347 87.771-89.861 87.771-154.645 0-100.31-79.412-181.812-179.722-181.812zM652.016 435.461v25.078h35.527v-25.078h-35.527zM652.016 579.657v25.078h35.527v-25.078h-35.527zM652.016 723.853v25.078h35.527v-25.078h-35.527zM568.424 284.996v543.347c0 0 0 0 0 0s0 0 0 0v0 0c0 31.347-25.078 56.424-56.424 56.424s-56.424-25.078-56.424-56.424v0-543.347c-52.245-20.898-87.771-73.143-87.771-131.657 0-79.412 64.784-144.196 144.196-144.196s144.196 64.784 144.196 144.196c0 58.514-35.527 108.669-87.771 131.657zM470.204 824.163v4.18c0 22.988 18.808 41.796 41.796 41.796s41.796-18.808 41.796-41.796v-219.429h-85.682v215.249z" />
<glyph unicode="&#xe95b;" glyph-name="net" d="M520.533-64c-8.533 0-12.8 0-21.333 0 0 17.067 0 34.133 0 51.2 0 21.333-4.267 38.4-17.067 55.467-55.467 89.6-166.4 128-264.533 89.6-4.267 0-8.533-4.267-12.8-8.533-17.067-17.067-34.133-34.133-51.2-51.2-4.267 4.267-12.8 8.533-17.067 17.067 12.8 12.8 25.6 25.6 42.667 38.4 12.8 12.8 21.333 25.6 21.333 42.667 25.6 102.4-21.333 213.333-119.467 260.267-4.267 4.267-12.8 4.267-17.067 4.267-21.333 0-42.667 0-68.267 0 0 8.533 0 12.8 0 21.333 4.267 0 4.267 0 8.533 0 21.333 0 38.4 0 59.733 0 4.267 0 12.8 0 17.067 4.267 89.6 46.933 128 115.2 132.267 209.067 0 25.6-4.267 51.2-12.8 72.533 0 4.267-4.267 8.533-8.533 8.533-17.067 17.067-34.133 34.133-51.2 51.2 4.267 4.267 12.8 8.533 17.067 17.067 12.8-12.8 21.333-21.333 29.867-34.133 21.333-25.6 46.933-34.133 76.8-38.4 98.133-12.8 187.733 34.133 230.4 123.733 4.267 4.267 4.267 12.8 4.267 17.067 0 21.333 0 38.4 0 59.733 0 4.267 0 4.267 0 8.533 8.533 0 12.8 0 21.333 0 0-4.267 0-4.267 0-8.533 0-17.067 0-34.133 0-51.2 0-12.8 4.267-25.6 8.533-38.4 51.2-98.133 170.667-140.8 273.067-102.4 4.267 0 8.533 4.267 12.8 8.533 17.067 17.067 34.133 34.133 51.2 51.2 4.267-4.267 12.8-8.533 17.067-17.067-17.067-17.067-34.133-34.133-51.2-46.933-4.267-4.267-8.533-8.533-8.533-12.8-38.4-106.667 12.8-230.4 115.2-277.333 4.267 0 8.533-4.267 12.8-4.267 21.333 0 46.933 0 68.267 0 0-8.533 0-12.8 0-21.333-4.267 0-4.267 0-8.533 0-21.333 0-38.4 0-59.733 0-4.267 0-12.8 0-17.067-4.267-81.067-38.4-132.267-123.733-128-213.333 0-21.333 8.533-38.4 12.8-59.733 0-8.533 8.533-17.067 12.8-21.333 12.8-17.067 29.867-29.867 42.667-46.933 0 0 0 0 0-4.267-4.267-4.267-8.533-8.533-17.067-12.8-8.533 8.533-21.333 21.333-29.867 29.867-21.333 25.6-46.933 34.133-76.8 38.4-98.133 12.8-187.733-38.4-230.4-123.733-4.267-4.267-4.267-12.8-4.267-17.067 0-21.333 0-38.4 0-59.733 8.533 0 8.533 0 4.267-4.267zM128 435.2c85.333-64 119.467-149.333 106.667-251.733 21.333 21.333 42.667 42.667 59.733 59.733 0 0 4.267 4.267 4.267 4.267 21.333 59.733 0 128-46.933 166.4-12.8 8.533-21.333 17.067-34.133 17.067-34.133 8.533-59.733 4.267-89.6 4.267zM896 435.2c-25.6 0-55.467 0-81.067 0-4.267 0-12.8 0-17.067-4.267-55.467-29.867-89.6-89.6-81.067-153.6 4.267-17.067 4.267-29.867 17.067-42.667 17.067-17.067 34.133-34.133 46.933-46.933 0 0 4.267-4.267 4.267-4.267-8.533 106.667 25.6 187.733 110.933 251.733zM793.6 712.533c-4.267-4.267-4.267-4.267 0 0-21.333-21.333-42.667-38.4-59.733-59.733-4.267-4.267-4.267-4.267-4.267-8.533-25.6-68.267 8.533-149.333 72.533-179.2 4.267-4.267 12.8-4.267 17.067-4.267 21.333 0 38.4 0 59.733 0 4.267 0 12.8 0 17.067 0-85.333 64-119.467 145.067-102.4 251.733zM230.4 712.533c17.067-106.667-17.067-187.733-102.4-251.733 25.6 0 51.2 0 76.8 0 8.533 0 17.067 4.267 25.6 4.267 55.467 29.867 85.333 89.6 76.8 149.333 0 12.8-4.267 25.6-12.8 38.4-21.333 21.333-42.667 38.4-64 59.733zM499.2 64c0 29.867 0 59.733 0 85.333 0 4.267 0 4.267-4.267 8.533-25.6 55.467-89.6 89.6-153.6 81.067-21.333-4.267-38.4-8.533-51.2-25.6-12.8-12.8-25.6-25.6-38.4-38.4 0 0-4.267-4.267-4.267-4.267 106.667 12.8 187.733-21.333 251.733-106.667zM776.533 166.4c-4.267 4.267-4.267 4.267 0 0-21.333 21.333-38.4 42.667-59.733 59.733-4.267 4.267-4.267 4.267-8.533 4.267-72.533 25.6-149.333-8.533-183.467-76.8 0-4.267-4.267-8.533-4.267-12.8 0-25.6 0-46.933 0-72.533 0-4.267 0-4.267 0-8.533 29.867 42.667 64 72.533 110.933 89.6 46.933 21.333 93.867 25.6 145.067 17.067zM776.533 729.6c-106.667-17.067-187.733 17.067-251.733 102.4 0-29.867 0-55.467 0-85.333 0-4.267 0-4.267 4.267-8.533 29.867-59.733 89.6-89.6 153.6-81.067 12.8 0 25.6 4.267 38.4 12.8 17.067 17.067 34.133 38.4 55.467 59.733zM247.467 729.6c4.267-4.267 4.267-4.267 0 0 21.333-21.333 38.4-38.4 59.733-59.733 4.267-4.267 8.533-4.267 8.533-4.267 68.267-25.6 149.333 8.533 179.2 72.533 4.267 4.267 4.267 8.533 4.267 17.067 0 25.6 0 46.933 0 72.533 0 0 0 4.267 0 8.533-64-89.6-145.067-123.733-251.733-106.667zM341.333 635.733c0 0 4.267-4.267 4.267-4.267 21.333-21.333 38.4-38.4 59.733-59.733 4.267-4.267 8.533-4.267 12.8-4.267 25.6-8.533 51.2 0 72.533 21.333 8.533 8.533 17.067 21.333 17.067 34.133 0 21.333 0 46.933 0 68.267 0 4.267 0 4.267 0 8.533-51.2-51.2-102.4-72.533-166.4-64zM524.8 699.733c0-25.6 0-51.2 0-76.8 0-12.8 4.267-25.6 12.8-34.133 12.8-12.8 25.6-21.333 42.667-25.6 21.333-4.267 38.4 0 51.2 17.067 8.533 12.8 21.333 21.333 29.867 29.867 4.267 8.533 12.8 12.8 21.333 21.333-64-4.267-119.467 17.067-157.867 68.267zM260.267 460.8c25.6 0 51.2 0 76.8 0 17.067 0 25.6 4.267 34.133 17.067 12.8 12.8 21.333 29.867 21.333 46.933s0 34.133-17.067 42.667c-12.8 12.8-29.867 29.867-42.667 46.933 0 0-4.267 4.267-4.267 4.267 4.267-64-17.067-119.467-68.267-157.867zM763.733 460.8c-51.2 42.667-72.533 93.867-64 157.867-4.267-4.267-4.267-4.267-4.267-4.267-21.333-21.333-38.4-38.4-55.467-55.467-4.267-4.267-8.533-8.533-8.533-17.067-4.267-29.867 4.267-51.2 25.6-72.533 4.267-4.267 12.8-8.533 21.333-8.533 25.6 0 55.467 0 85.333 0zM328.533 277.333c0 4.267 0 4.267 0 0 21.333 21.333 42.667 42.667 59.733 59.733 4.267 4.267 4.267 8.533 4.267 12.8 8.533 29.867 0 51.2-21.333 72.533-8.533 8.533-21.333 12.8-34.133 12.8-21.333 0-46.933 0-68.267 0-4.267 0-4.267 0-8.533 0 55.467-55.467 68.267-81.067 68.267-157.867zM695.467 277.333c-4.267 64 17.067 115.2 68.267 157.867-25.6 0-51.2 0-76.8 0-12.8 0-21.333-4.267-29.867-12.8-12.8-8.533-21.333-21.333-21.333-38.4-4.267-21.333-4.267-42.667 17.067-59.733 12.8-8.533 21.333-21.333 29.867-29.867 0 0 8.533-8.533 12.8-17.067zM499.2 196.267c0 25.6 0 51.2 0 76.8 0 17.067-4.267 25.6-17.067 38.4s-25.6 21.333-42.667 21.333c-17.067 0-34.133 0-46.933-17.067s-29.867-29.867-42.667-46.933c-4.267-4.267-8.533-4.267-8.533-4.267s0 0 4.267-4.267c55.467 8.533 110.933-12.8 153.6-64zM682.667 260.267c-4.267 4.267-4.267 4.267 0 0-21.333 21.333-42.667 42.667-59.733 59.733-4.267 4.267-8.533 4.267-12.8 4.267-29.867 8.533-64-4.267-81.067-34.133-4.267-4.267-4.267-12.8-4.267-17.067 0-17.067 0-38.4 0-55.467 0-8.533 0-17.067 0-29.867 38.4 59.733 93.867 81.067 157.867 72.533zM418.133 371.2c21.333 21.333 42.667 42.667 64 64-29.867 0-59.733 0-89.6 0 17.067-17.067 25.6-38.4 25.6-64zM605.867 371.2c0 25.6 8.533 46.933 25.6 64-29.867 0-59.733 0-89.6 0 21.333-21.333 42.667-42.667 64-64zM482.133 460.8c-21.333 21.333-42.667 42.667-59.733 59.733-4.267-8.533-4.267-21.333-8.533-29.867s-12.8-21.333-17.067-29.867c25.6 0 55.467 0 85.333 0zM605.867 520.533c-21.333-21.333-42.667-42.667-64-64 29.867 0 59.733 0 89.6 0-17.067 21.333-25.6 42.667-25.6 64zM524.8 418.133c0-29.867 0-59.733 0-89.6 17.067 17.067 38.4 25.6 64 25.6-25.6 21.333-42.667 42.667-64 64zM439.467 541.867c21.333-21.333 42.667-42.667 59.733-64 0 29.867 0 55.467 0 89.6-17.067-17.067-38.4-25.6-59.733-25.6zM584.533 541.867c-8.533 4.267-21.333 4.267-29.867 8.533s-21.333 12.8-29.867 17.067c0-29.867 0-59.733 0-85.333 21.333 17.067 42.667 38.4 59.733 59.733zM435.2 354.133c25.6 0 42.667-8.533 64-25.6 0 29.867 0 59.733 0 89.6-21.333-21.333-42.667-42.667-64-64z" />
<glyph unicode="&#xe95c;" glyph-name="anonymous" d="M230.4 605.867c12.8 46.933 29.867 93.867 46.933 140.8 8.533 34.133 21.333 64 29.867 98.133 4.267 12.8 8.533 12.8 21.333 12.8 38.4-12.8 72.533-21.333 110.933-25.6 12.8-4.267 29.867 0 46.933 0 34.133 4.267 68.267 8.533 102.4 12.8s72.533 12.8 106.667 17.067c4.267 0 8.533 0 12.8 0s8.533 0 12.8-8.533c12.8-46.933 29.867-93.867 42.667-136.533 12.8-38.4 25.6-76.8 34.133-115.2-192 4.267-379.733 4.267-567.467 4.267zM456.533 247.467c34.133 8.533 64 12.8 98.133 4.267 8.533 0 12.8 0 12.8 8.533 17.067 34.133 42.667 59.733 76.8 72.533 38.4 17.067 76.8 21.333 115.2 8.533 34.133-8.533 59.733-29.867 81.067-55.467 25.6-34.133 38.4-72.533 34.133-119.467-8.533-51.2-34.133-89.6-76.8-115.2-51.2-34.133-132.267-29.867-179.2 12.8-42.667 34.133-59.733 76.8-64 128 0 8.533-4.267 12.8-12.8 17.067-21.333 4.267-42.667 4.267-64 0-8.533-4.267-8.533-4.267-8.533-12.8 0-21.333-4.267-46.933-12.8-68.267-12.8-29.867-34.133-55.467-64-72.533-55.467-38.4-136.533-34.133-183.467 8.533-42.667 34.133-64 76.8-59.733 128 0 59.733 29.867 106.667 85.333 136.533s115.2 25.6 170.667-12.8c12.8-8.533 21.333-17.067 34.133-29.867 0-8.533 8.533-21.333 17.067-38.4zM307.2 302.933c-64 0-115.2-51.2-115.2-110.933 0-64 46.933-115.2 110.933-115.2s115.2 46.933 115.2 110.933c4.267 64-46.933 115.2-110.933 115.2zM712.533 302.933c-64 0-115.2-51.2-115.2-110.933 0-64 46.933-115.2 110.933-115.2 59.733 0 115.2 46.933 115.2 110.933 0 59.733-46.933 115.2-110.933 115.2zM1024 409.6c-341.333 0-682.667 0-1024 0 0 0 0 0 0 0 17.067 8.533 29.867 17.067 46.933 21.333 42.667 12.8 85.333 29.867 132.267 42.667 34.133 8.533 68.267 17.067 102.4 21.333 89.6 17.067 183.467 21.333 277.333 17.067 55.467-4.267 110.933-8.533 166.4-17.067 38.4-4.267 72.533-12.8 110.933-21.333s72.533-21.333 110.933-34.133c21.333-4.267 51.2-17.067 76.8-29.867 0 0 0 0 0 0z" />
<glyph unicode="&#xe95d;" glyph-name="zone" d="M243.2 448c-12.8 17.067-25.6 34.133-38.4 51.2-34.133 46.933-68.267 98.133-89.6 153.6-17.067 34.133-25.6 72.533-17.067 110.933 8.533 51.2 38.4 89.6 85.333 110.933 59.733 25.6 132.267 8.533 174.933-34.133 34.133-38.4 42.667-81.067 34.133-132.267-8.533-46.933-29.867-85.333-51.2-123.733-29.867-46.933-59.733-89.6-89.6-132.267-4.267 0-4.267 0-8.533-4.267zM247.467 823.467c-46.933 0-89.6-38.4-89.6-89.6 0-46.933 38.4-89.6 85.333-89.6s89.6 38.4 89.6 85.333c0 55.467-38.4 93.867-85.333 93.867zM490.667 379.733l-17.067 25.6 12.8 8.533-34.133 183.467c0 0 0 8.533-8.533 8.533l-42.667 4.267c0 0-68.267-110.933-157.867-217.6 4.267 4.267-93.867 110.933-132.267 187.733l-110.933-51.2c0 0-4.267 0-4.267-8.533l25.6-145.067 34.133-21.333-8.533-21.333-17.067 8.533 59.733-332.8 213.333 102.4 238.933-21.333-51.2 290.133zM149.333 285.867c-12.8 4.267-29.867 12.8-42.667 17.067 4.267 8.533 4.267 17.067 8.533 21.333 17.067 0 29.867-4.267 42.667-12.8-4.267-8.533-4.267-17.067-8.533-25.6zM256 268.8c-17.067 0-34.133 4.267-46.933 4.267 0 8.533 4.267 17.067 4.267 25.6 12.8 0 29.867-4.267 42.667-4.267 0-8.533 0-17.067 0-25.6zM315.733 277.333c-4.267 8.533-4.267 12.8-8.533 21.333 17.067 8.533 29.867 17.067 42.667 21.333 4.267-8.533 8.533-12.8 8.533-21.333-12.8-8.533-25.6-12.8-42.667-21.333zM405.333 328.533c-4.267 8.533-8.533 12.8-12.8 21.333 12.8 8.533 25.6 17.067 38.4 25.6 4.267-4.267 8.533-12.8 12.8-21.333-8.533-8.533-21.333-17.067-38.4-25.6zM972.8 460.8l-29.867 25.6 12.8 21.333 12.8-8.533-34.133 187.733c0 0 0 8.533-8.533 8.533l-226.133 17.067-209.067-93.867c0 0-8.533-4.267-4.267-12.8l29.867-170.667 21.333-12.8-17.067-17.067 55.467-307.2 213.333 102.4 234.667-21.333-51.2 281.6zM580.267 465.067c-4.267 4.267-8.533 12.8-12.8 17.067 12.8 12.8 21.333 21.333 29.867 34.133 4.267-4.267 12.8-12.8 17.067-17.067-12.8-8.533-25.6-21.333-34.133-34.133zM657.067 541.867c-4.267 4.267-8.533 12.8-12.8 21.333 12.8 8.533 25.6 17.067 38.4 25.6 8.533-8.533 12.8-17.067 12.8-21.333-12.8-8.533-25.6-17.067-38.4-25.6zM797.867 571.733c-12.8 4.267-25.6 4.267-42.667 4.267 0 8.533 0 17.067 0 25.6 17.067 0 34.133 0 51.2-4.267-4.267-8.533-4.267-17.067-8.533-25.6zM891.733 520.533c-12.8 8.533-25.6 17.067-38.4 25.6 4.267 8.533 8.533 12.8 12.8 21.333 12.8-8.533 25.6-17.067 38.4-25.6-4.267-8.533-8.533-12.8-12.8-21.333z" />
<glyph unicode="&#xe95e;" glyph-name="inventory" d="M273.067 226.133c4.267 0 8.533 4.267 8.533 8.533v85.333h98.133v-221.867h-217.6v221.867h98.133v-81.067c0-8.533 8.533-12.8 12.8-12.8zM512 226.133c4.267 0 8.533 4.267 8.533 8.533v85.333h98.133v-221.867h-217.6v221.867h98.133v-81.067c0-8.533 8.533-12.8 12.8-12.8zM750.933 226.133c4.267 0 8.533 4.267 8.533 8.533v85.333h98.133v-221.867h-217.6v221.867h98.133v-81.067c4.267-8.533 8.533-12.8 12.8-12.8zM644.267 780.8h98.133v-81.067c0-4.267 4.267-8.533 8.533-8.533s8.533 4.267 8.533 8.533v81.067h98.133v-221.867h-217.6v221.867h4.267zM401.067 780.8h98.133v-81.067c0-4.267 4.267-8.533 8.533-8.533s8.533 4.267 8.533 8.533v81.067h98.133v-221.867h-213.333v221.867zM162.133 780.8h98.133v-81.067c0-4.267 4.267-8.533 8.533-8.533s8.533 4.267 8.533 8.533v81.067h98.133v-221.867h-213.333v221.867zM153.6 537.6h780.8v-38.4h-844.8v38.4zM68.267-42.667h-42.667v981.333h42.667v-908.8zM89.6 38.4v38.4h844.8v-38.4zM998.4-42.667h-42.667v981.333h42.667z" />
</font>
</defs>
</svg>
